img image001 image001 image001 image001 image001 image001 image001 image001 image001 image001 image001 image001 image001 image001 image001 image001

Planets Sun Sun Sun
Статистика раздачи
Автор: Снежана | Размер: 1.46 ГБ | Добавлен: 16 окт 2018
Раздают: 308    Качают: 1
Скачать торрент
Скачать торрент
Описание торрента

СообщениеДобавлено: 16 окт 2018 

Информация о фильме
Название: Временные трудности
Год выхода: 2017
Жанр: Драма, Мелодрама
Режиссер: Михаил Расходников
В ролях: Иван Охлобыстин, Риналь Мухаметов, Виктория Соловьёва, Ян Цапник, Илья Рязанов, Ирина Пегова, Ирина Маликова, Николай Ковбас
О фильме:
У Саши Ковалёва была врожденная болезнь. Отец мальчика выбрал, как ему казалось, единственно правильный способ поставить сына на ноги — относиться к нему как к здоровому человеку. «Ты не больной — у тебя временные трудности». Поесть, одеться, спуститься и подняться по лестнице подъезда — каждый день у ребенка уходили часы на то, чтобы справиться с простыми бытовыми задачами. В школе — издевательства сверстников. И помощи ждать было не от кого. Мальчик справился с болезнью, но возненавидел отца. Окончив школу, Саша уехал из дома и прекратил всякое общение с отцом. За 15 лет он стал лучшим бизнес-консультантом страны, который вывел из кризиса сотни бизнесов. «У вас не кризис — у вас временные трудности» — говорил своим клиентам прошедший тяжелый путь становления Александр. Но однажды новый заказ дает ему неожиданную возможность поквитаться с отцом.

Страна: Россия
Студия: «Enjoy Movies»
Продолжительность: 01:23:25
Перевод: Не требуется
Субтитры: нет
Файл
Формат: avi
Качество: WEB-DLRip
Видео: XviD build 73, 720x304 (2.35:1), 24.000 fps, 2107 Kbps (0.401 bit/pixel)
Звук: 48.0 kHz, AC3, 5/1 ch, 384 kbps
General
Complete name : D:RazdachiVremennye.Trudnosti.2017.XviD.WEB-DLRip.GeneralFilm.avi
Format : AVI
Format/Info : Audio Video Interleave
File size : 1.46 GiB
Duration : 1 h 23 min
Overall bit rate : 2 500 kb/s
Writing application : VirtualDubMod 1.5.10.3 | www.virtualdub-fr.org || (build 2550/release)
Writing library : VirtualDubMod build 2550/release
Video
ID : 0
Format : MPEG-4 Visual
Format profile : Advanced Simple@L5
Format settings, BVOP : 1
Format settings, QPel : No
Format settings, GMC : No warppoints
Format settings, Matrix : Custom
Codec ID : XVID
Codec ID/Hint : XviD
Duration : 1 h 23 min
Bit rate : 2 107 kb/s
Width : 720 pixels
Height : 304 pixels
Display aspect ratio : 2.35:1
Frame rate : 24.000 FPS
Color space : YUV
Chroma subsampling : 4:2:0
Bit depth : 8 bits
Scan type : Progressive
Compression mode : Lossy
Bits/(Pixel*Frame) : 0.401
Stream size : 1.23 GiB (84%)
Writing library : XviD 73
Audio
ID : 1
Format : AC-3
Format/Info : Audio Coding 3
Format settings, Endianness : Big
Codec ID : 2000
Duration : 1 h 23 min
Bit rate mode : Constant
Bit rate : 384 kb/s
Channel(s) : 6 channels
Channel positions : Front: L C R, Side: L R, LFE
Sampling rate : 48.0 kHz
Frame rate : 31.250 FPS (1536 SPF)
Bit depth : 16 bits
Compression mode : Lossy
Stream size : 229 MiB (15%)
Alignment : Split accross interleaves
Interleave, duration : 42 ms (1.00 video frame)
Interleave, preload duratio : 500 ms
Service kind : Complete Main

Релиз от:



   Похожие торренты   Торрент   Размер 
В этой теме нет новых непрочитанных сообщений. Временные трудности (2017) WEB-DLRip от GeneralFilm

47 | 4

744.69 МБ

В этой теме нет новых непрочитанных сообщений. Временные трудности (2017) WEB-DLRip | КПК

76 | 0

307.64 МБ

В этой теме нет новых непрочитанных сообщений. Временные трудности (2017) WEB-DLRip

539 | 2

1.37 ГБ

В этой теме нет новых непрочитанных сообщений. Временные трудности (2017) WEB-DLRip от MegaPeer

50 | 0

744.5 МБ

В этой теме нет новых непрочитанных сообщений. Временные трудности (2017) WEB-DL 1080p

1617 | 34

3.21 ГБ

В этой теме нет новых непрочитанных сообщений. Временные трудности (2018) WEB-DLRip от Scarabey

1277 | 26

1.39 ГБ

В этой теме нет новых непрочитанных сообщений. Трудности ассимиляции / Fresh Off the Boat [S02] (2016) WEB-DLRip | L2

55 | 27

5.93 ГБ




Вы не можете начинать темы
Вы не можете отвечать на сообщения
Вы не можете редактировать свои сообщения
Вы не можете удалять свои сообщения
Вы не можете добавлять вложения

Перейти:  
 Вход
ppkBB3cker v.2 © 2008-2014 @ PPK
[ Time : 0.038s | 17 Queries | GZIP : Off ]

cron