img image001 image001 image001 image001 image001 image001 image001 image001 image001 image001 image001 image001 image001 image001 image001

Planets Sun Sun Sun
Статистика раздачи
Автор: Снежана | Размер: 2.9 ГБ | Добавлен: 08 авг 2019
Раздают: 47    Качают: 3
Скачать торрент
Скачать торрент
Описание торрента

СообщениеДобавлено: 08 авг 2019 

Балканский рубеж

Субтитры: Русские (форсированные)
Формат: BDRip-AVC, MKV, H.264, AC3
Страна: Россия, Сербия
Перевод: не требуется
Режиссер: Андрей Волгин
Жанр: военный, боевик, драма
Продолжительность: 02:31:16
Год выпуска: 2019

В ролях: Антон Пампушный, Гоша Куценко, Милош Бикович, Милена Радулович, Гойко Митич, Равшана Куркова, Дмитрий Фрид, Александр Сречкович, Светлана Чуйкина, Миодраг Радонич, Никола Ранделович, Эмир Кустурица, Кирилл Полухин, Нодар Джанелидзе, Сергей Марин, Никита Кологривый, Александар Радойчич, Александар Лазич, Роман Курцын, Ефим Петрунин, Роман Воронцов, Анвар Халилулаев, Всеволод Яшкин, Даниел Ковачевич, Лада Имамович, Данила Дедовец, Василиса Немцова, Аня Алач, Михаил Хмуров, Константин Самоуков, Срджан Тодорович, Кирилл Быркин, Дмитрий Вяткин, Бранка Пуйич, Вероника Волоха, Добрила Стойнич, Олег Морозов, Джордже Маркович, Иван Михаилович, Елена Чарквиани, Анна Галлямова, Валентина Муравская, Константин Соловьёв, Вадим Быркин

Описание: Югославия. 1999 год. Российская спецгруппа получает приказ взять под контроль аэродром Слатина в Косово и удерживать его до прихода подкрепления. Но этот стратегический объект крайне важен албанскому полевому командиру и натовским генералам. Группа вынуждена принять неравный бой с террористами. К аэродрому устремляются российские миротворцы и силы НАТО. Мир вновь близок к большой войне. Но командиру спецгруппы Андрею Шаталову не до политики: в аэропорту среди заложников его любимая девушка Ясна...
«Мир, за который стоит бороться»

Рейтинг и доп. информация:


Видео: 1152x480, (2,40:1), 23,976 fps, AVC MPEG-4 (x264), ~ 2363 kbps , 0.178 bit/pixel
Аудио: 48 kHz, AC3 Dolby Digital, 3/2 (L,C,R,l,r) + LFE ch, ~384 kbps

Доп. инфо: | Исходник: The.Balkan.Line.2019.COMPLETE.FR.BLURAY-UTT |
---[Information] [07.08.2019 19:51:02] x264 [info]: frame I:1821 Avg QP:17.41 size: 54829
---[Information] [07.08.2019 19:51:02] x264 [info]: frame P:49052 Avg QP:19.47 size: 25209
---[Information] [07.08.2019 19:51:02] x264 [info]: frame B:166745 Avg QP:21.80 size: 8068

General
Unique ID : 211850832414071749609465860723210447470 (0x9F60FC76E13CAE36C7FEF2446FC7EA6E)
Complete name : C:tempBalkanskij rubezhBalkanskiy.rubezh.2019.BDRip.x264.Rus.stalkerok.New-Team..mkv
Format : Matroska
Format version : Version 4
File size : 2.90 GiB
Duration : 2 h 31 min
Overall bit rate : 2 749 kb/s
Movie name : Балканский рубеж (2019) | Rip by stalkerok
Encoded date : UTC 2019-08-07 17:00:30
Writing application : mkvmerge v33.1.0 (''Primrose'') 64-bit
Writing library : libebml v1.3.7 + libmatroska v1.5.0

Video
ID : 1
Format : AVC
Format/Info : Advanced Video Codec
Format profile :
Format settings : CABAC / 12 Ref Frames
Format settings, CABAC : Yes
Format settings, RefFrames : 12 frames
Codec ID : V_MPEG4/ISO/AVC
Duration : 2 h 31 min
Bit rate : 2 364 kb/s
Width : 1 152 pixels
Height : 480 pixels
Display aspect ratio : 2.40:1
Frame rate mode : Constant
Frame rate : 23.976 (24000/1001) FPS
Color space : YUV
Chroma subsampling : 4:2:0
Bit depth : 8 bits
Scan type : Progressive
Bits/(Pixel*Frame) : 0.178
Stream size : 2.50 GiB (86%)
Title : Балканский рубеж (2019) | Rip by stalkerok
Writing library : x264 core 158 r2984+49 6932f4a t_mod_New [0-bit@all X86_64]
Encoding settings : cabac=1 / ref=12 / deblock=1:-3:-2 / analyse=0x3:0x133 / me=umh / subme=11 / psy=1 / fade_compensate=0.00 / psy_rd=1.00:0.00 / mixed_ref=1 / me_range=32 / chroma_me=1 / trellis=2 / 8x8dct=1 / cqm=0 / deadzone=21,11 / fast_pskip=0 / chroma_qp_offset=-2 / threads=12 / lookahead_threads=3 / sliced_threads=0 / nr=0 / decimate=1 / interlaced=0 / bluray_compat=0 / constrained_intra=0 / fgo=0 / bframes=14 / b_pyramid=2 / b_adapt=2 / b_bias=0 / direct=3 / weightb=1 / open_gop=0 / weightp=2 / keyint=240 / keyint_min=23 / scenecut=40 / intra_refresh=0 / rc_lookahead=60 / rc=crf / mbtree=0 / crf=19.4000 / qcomp=0.65 / qpmin=0:0:0 / qpmax=69:69:69 / qpstep=4 / vbv_maxrate=50000 / vbv_bufsize=62500 / crf_max=0.0 / nal_hrd=none / filler=0 / ip_ratio=1.40 / pb_ratio=1.30 / aq=3:0.80 / aq-sensitivity=10.00 / aq-factor=1.00:1.00:1.00 / aq2=0 / aq3=0 / zones=210983,217617,q=32
Default : Yes
Forced : No

Audio
ID : 2
Format : AC-3
Format/Info : Audio Coding 3
Commercial name : Dolby Digital
Codec ID : A_AC3
Duration : 2 h 31 min
Bit rate mode : Constant
Bit rate : 384 kb/s
Channel(s) : 6 channels
Channel layout : L R C LFE Ls Rs
Sampling rate : 48.0 kHz
Frame rate : 31.250 FPS (1536 SPF)
Bit depth : 16 bits
Compression mode : Lossy
Stream size : 415 MiB (14%)
Title : iTunes
Language : Russian
Service kind : Complete Main
Default : Yes
Forced : No

Text
ID : 3
Format : UTF-8
Codec ID : S_TEXT/UTF8
Codec ID/Info : UTF-8 Plain Text
Duration : 2 h 15 min
Bit rate : 1 b/s
Count of elements : 5
Stream size : 1.23 KiB (0%)
Title : Forced
Language : Russian
Default : Yes
Forced : No

Menu
00:00:00.000 : :Chapter 01
00:08:49.987 : :Chapter 02
00:22:11.830 : :Chapter 03
00:32:55.598 : :Chapter 04
00:47:48.365 : :Chapter 05
01:00:28.625 : :Chapter 06
01:17:46.578 : :Chapter 07
01:31:32.612 : :Chapter 08
01:46:26.838 : :Chapter 09
02:01:19.272 : :Chapter 10
02:14:36.276 : :Chapter 11
02:26:42.251 : :Chapter 12








   Похожие торренты   Торрент   Размер 
В этой теме нет новых непрочитанных сообщений. Балканский рубеж (Андрей Волгин) [2019, военный, боевик, драма, BDRip]

113 | 1

2.18 ГБ

В этой теме нет новых непрочитанных сообщений. Балканский рубеж (Андрей Волгин) [2019, военный, боевик, драма, BDRip-AVC]

53 | 1

1.47 ГБ

В этой теме нет новых непрочитанных сообщений. Балканский рубеж (Андрей Волгин) [2019, военный, боевик, драма, BDRip]

460 | 11

1.46 ГБ

В этой теме нет новых непрочитанных сообщений. Балканский рубеж (Андрей Волгин) [2019, военный, боевик, драма, HDRip]

12 | 4

2.11 ГБ

В этой теме нет новых непрочитанных сообщений. Соня Суперфрау (1- серии из 4) (Андрей Никишин (II)) [2019, драма, WEBRip-AVC]

4 | 0

804.1 МБ

В этой теме нет новых непрочитанных сообщений. Пятнадцать минут войны / L'Intervention (Фред Гривуа) [2019, история, драма, боевик, военный, BDRip] MVO

347 | 12

1.42 ГБ

В этой теме нет новых непрочитанных сообщений. Уилл Гарднер / SGT. Will Gardner (Макс Мартини ) [2019, боевик, драма, приключения, военный , BDRip] MVO / Драмы

10 | 0

1.46 ГБ




Вы не можете начинать темы
Вы не можете отвечать на сообщения
Вы не можете редактировать свои сообщения
Вы не можете удалять свои сообщения
Вы не можете добавлять вложения

Перейти:  
 Вход
ppkBB3cker v.2 © 2008-2014 @ PPK
[ Time : 0.036s | 18 Queries | GZIP : Off ]

cron