img image001 image001 image001 image001 image001 image001 image001 image001 image001 image001 image001 image001 image001 image001 image001

Planets Sun Sun Sun
Статистика раздачи
Автор: Снежана | Размер: 4.84 ГБ | Добавлен: 10 сен 2019
Раздают: 106    Качают: 9
Скачать торрент
Скачать торрент
Описание торрента

СообщениеДобавлено: 10 сен 2019 

Тайна последней главы (1-4 серии из 4)

Формат: WEB-DL 720p, MKV, H.264, AC3
Режиссер: Артур Румынский
Жанр: детектив, триллер
Продолжительность: 4 х 00:48:00
Год выпуска: 2019

В ролях: Александра Никифорова, Константин Соловьёв, Константин Балакирев, Елена Морозова, Ирина Бразговка, Евгений Коряковский, Любовь Матюшина, Евгений Воловенко, Эрик Яралов, Елена Полякова, Ксения Щербакова, Даниил Чибриков, Андрей Пынзару, Владислав Павлов, Галина Звягинцева, Григорий Быстрицкий, Елена Котельникова, Людмила Кожевникова

Описание: В одно обыкновенное утро жизнь переводчицы Ланы Берсеньевой раскололась на «до» и «после». Сначала Лана нашла мертвой свою собаку, а вскоре была убита еще и старенькая няня Софико, и муж оказался под подозрением. Чтобы перестать переживать, Лана начинает переводить роман писателя Ханса Лундстрема, в котором, к своему ужасу, обнаруживает явные намеки на кошмары, происходящие вокруг нее. Никто не принимает впечатления и страхи Ланы всерьез, но предсказания сбываются, и один за другим погибают близкие Лане люди. К тому же текст романа заставляет Лану пересмотреть жизнь своей семьи и открыть в ней страшные тайны. Лана понимает: убийца находится рядом, он контролирует её мысли и поступки, и у неё нет шансов выйти живой из игры, которую он затеял.

Рейтинг и доп. информация:


Видео: 1280x720, (16:9), 25 fps, AVC MPEG-4 (x264), ~ 3500 kbps , 0.152 bit/pixel
Аудио: 48 kHz, АС3, 2/0 (L,R), ~192.00 kbps avg
Общее
Уникальный идентификатор : 145614538940849935092875948479926292026 (0x6D8C57100916F375464144CDF6DCCE3A)
Полное имя : C:\Тайна последней главы.2019.WEB-DLRip.720p\01_Тайна последней главы_(2019)_720p_[-=DoMiNo=-].mkv
Формат : Matroska
Версия формата : Version 4
Размер файла : 1,20 Гбайт
Продолжительность : 47 м. 4 с.
Общий поток : 3643 Кбит/сек
Программа кодирования : Lavf
Библиотека кодирования : Lavf
Авторское право : -=DoMiNo=-
ErrorDetectionType : Per level 1
Attachments : poster / poster
EPISODE_SORT : 1
Язык : und

Видео
Идентификатор : 1
Формат : AVC
Формат/Информация : Advanced Video Codec
Профиль формата :
Настройки формата : CABAC / 6 Ref Frames
Параметр CABAC формата : Да
Параметр RefFrames формата : 6 кадров
Идентификатор кодека : V_MPEG4/ISO/AVC
Продолжительность : 47 м. 4 с.
Битрейт : 3500 Кбит/сек
Ширина : 1280 пикселей
Высота : 720 пикселей
Соотношение сторон : 16:9
Режим частоты кадров : Постоянный
Частота кадров : 25,000 кадров/сек
Цветовое пространство : YUV
Субдискретизация насыщенности : 4:2:0
Битовая глубина : 8 бит
Тип развёртки : Прогрессивная
Бит/(Пиксели*Кадры) : 0.152
Размер потока : 1,11 Гбайт (93%)
Заголовок : RIP_BY_-=DoMiNo=-
Библиотека кодирования : x264 core 157 r2958 57baac4
Настройки программы : cabac=1 / ref=6 / deblock=1:0:0 / analyse=0x3:0x133 / me=hex / subme=7 / psy=1 / psy_rd=1.00:0.00 / mixed_ref=1 / me_range=16 / chroma_me=1 / trellis=1 / 8x8dct=1 / cqm=0 / deadzone=21,11 / fast_pskip=1 / chroma_qp_offset=-2 / threads=6 / lookahead_threads=1 / sliced_threads=0 / nr=0 / decimate=1 / interlaced=0 / bluray_compat=0 / constrained_intra=0 / bframes=6 / b_pyramid=2 / b_adapt=2 / b_bias=0 / direct=1 / weightb=1 / open_gop=0 / weightp=2 / keyint=250 / keyint_min=25 / scenecut=40 / intra_refresh=0 / rc_lookahead=120 / rc=abr / mbtree=1 / bitrate=3500 / ratetol=1.0 / qcomp=0.60 / qpmin=0 / qpmax=69 / qpstep=4 / ip_ratio=1.40 / aq=1:1.00
Default : Да
Forced : Нет
Цветовой диапазон : Limited
Коэффициенты матрицы : BT.709

Аудио
Идентификатор : 2
Формат : AC-3
Формат/Информация : Audio Coding 3
Коммерческое название : Dolby Digital
Идентификатор кодека : A_AC3
Продолжительность : 47 м. 4 с.
Вид битрейта : Постоянный
Битрейт : 192 Кбит/сек
Каналы : 2 канала
ChannelLayout : L R
Частота : 48,0 КГц
Частота кадров : 31,250 кадров/сек (1536 SPF)
Битовая глубина : 16 бит
Метод сжатия : С потерями
Размер потока : 64,6 Мбайт (5%)
ServiceKind/String : Complete Main
Default : Да
Forced : Нет

Меню
00:00:00.000 : :Глава 1
00:03:30.240 : :Глава 2
00:07:56.160 : :Глава 3
00:11:58.680 : :Глава 4
00:16:43.040 : :Глава 5
00:21:43.040 : :Глава 6
00:27:05.600 : :Глава 7
00:31:29.520 : :Глава 8
00:37:07.240 : :Глава 9
00:42:03.560 : :Глава 10











   Похожие торренты   Торрент   Размер 
В этой теме нет новых непрочитанных сообщений. Тайна последней главы (1-4 серии из 4) (Артур Румынский) [2019, детектив, триллер, WEB-DLRip]

63 | 4

2.37 ГБ

В этой теме нет новых непрочитанных сообщений. Тайна последней главы (1-4 серии из 4) (Артур Румынский) [2019, детектив, триллер, SATRip-AVC]

59 | 2

2.32 ГБ

В этой теме нет новых непрочитанных сообщений. Тайна последней главы (1-4 серии из 4) (Артур Румынский) [2019, детектив, триллер, WEB-DLRip-AVC]

60 | 5

2.36 ГБ

В этой теме нет новых непрочитанных сообщений. Тайна последней главы (1-4 серии из 4) (Артур Румынский) [2019, Детектив, триллер, SATRip]

185 | 19

2.46 ГБ

В этой теме нет новых непрочитанных сообщений. Анатомия убийства (1-8 серии из 12) (Артур Румынский) [2018, детектив, криминал, мелодрама, WEB-DLRip-AVC]

71 | 12

4.63 ГБ

В этой теме нет новых непрочитанных сообщений. Анатомия убийства (1-8 серии из 12) (Артур Румынский) [2018, детектив, криминал, мелодрама, WEB-DLRip]

40 | 20

4.65 ГБ

В этой теме нет новых непрочитанных сообщений. Анатомия убийства (1-8 серии из 12) (Артур Румынский) [2018, детектив, криминал, мелодрама, SATRip]

31 | 11

4.69 ГБ




Вы не можете начинать темы
Вы не можете отвечать на сообщения
Вы не можете редактировать свои сообщения
Вы не можете удалять свои сообщения
Вы не можете добавлять вложения

Перейти:  
cron
 Вход
ppkBB3cker v.2 © 2008-2014 @ PPK
[ Time : 0.022s | 19 Queries | GZIP : Off ]

cron