img image001 image001 image001 image001 image001 image001 image001 image001 image001 image001 image001 image001 image001 image001 image001

Planets Sun Sun Sun
Статистика раздачи
Автор: Снежана | Размер: 1.62 ГБ | Добавлен: 08 окт 2019
Раздают: 11    Качают: 2
Скачать торрент
Скачать торрент
Описание торрента

СообщениеДобавлено: 08 окт 2019 

Бедная Liz

Формат: WEB-DLRip-AVC, MKV, H.264, AC3
Страна: Украина, Россия
Режиссер: Алексей Лисовец
Жанр: комедия
Продолжительность: 01:34:43
Год выпуска: 2013
В ролях: Мария Машкова, Антон Пампушный, Ниеле Сережникова, Александр Данильченко (II), Лина Будник, Дмитрий Лаленков, Екатерина Кистень, Любовь Тимошевская, Николай Боклан, Галина Корнеева, Николай Олейник

Описание: Сержант канадской полиции Джо Соколофф едет в далекую Россию выполнить последнюю просьбу своей любимой бабушки. Но с первых шагов на исторической родине все планы Джо рушатся — его грабят в поезде «милые соседи». Отстав от поезда, 30-летний любитель родео и кантри-музыки, глядящий на мир радостными широко открытыми глазами, оказывается в маленькой кубанской станице без денег и документов.
Смешной чудак в белой ковбойской шляпе попадает в «странный мир странных русских». Тут топят новорожденных щенков, едят пойманную в реке рыбу, шлепают детей! Но всего несколько дней понадобилось Джо, чтобы понять этих людей, принять их всем сердцем и влюбиться в красавицу-казачку Лизу. Но есть ли будущее у этой любви?..



Видео: 1024x576 (16:9), 25 fps, AVC MPEG4 (x264), , ~2250 kbps avg, 0.153 bit/pixel
Аудио: 44.1 kHz, AC3 Dolby Digital, 2/0 (L,R) ch, ~192 kbps

Общее
Уникальный идентификатор : 177228923108012981556920472210474463386 (0x85550C8B6DE79E94936571690F42F09A)
Полное имя : H:\Бедная Liz. 2013.WEB-DLRip (AVC).Rip by Аристократ.mkv
Формат : Matroska
Версия формата : Version 2
Размер файла : 1,62 Гбайт
Продолжительность : 1 ч. 34 м.
Общий поток : 2443 Кбит/сек
Дата кодирования : UTC 2014-07-27 20:20:59
Программа кодирования : mkvmerge v4.9.1 (''Ich will'') built on Jul 11 2011 23:53:15
Библиотека кодирования : libebml v1.2.1 + libmatroska v1.1.1

Видео
Идентификатор : 1
Формат : AVC
Формат/Информация : Advanced Video Codec
Профиль формата :
Настройки формата : CABAC / 8 Ref Frames
Параметр CABAC формата : Да
Параметр RefFrames формата : 8 кадров
Идентификатор кодека : V_MPEG4/ISO/AVC
Продолжительность : 1 ч. 34 м.
Битрейт : 2250 Кбит/сек
Ширина : 1024 пикселя
Высота : 576 пикселей
Соотношение сторон : 16:9
Режим частоты кадров : Постоянный
Частота кадров : 25,000 кадров/сек
Цветовое пространство : YUV
Субдискретизация насыщенности : 4:2:0
Битовая глубина : 8 бит
Тип развёртки : Прогрессивная
Бит/(Пиксели*Кадры) : 0.153
Размер потока : 1,46 Гбайт (90%)
Библиотека кодирования : x264 core 116 r2044 392e762
Настройки программы : cabac=1 / ref=8 / deblock=1:-2:-2 / analyse=0x3:0x113 / me=umh / subme=9 / psy=1 / psy_rd=1.00:0.20 / mixed_ref=1 / me_range=32 / chroma_me=1 / trellis=2 / 8x8dct=1 / cqm=0 / deadzone=21,11 / fast_pskip=0 / chroma_qp_offset=-3 / threads=12 / sliced_threads=0 / nr=0 / decimate=0 / interlaced=0 / bluray_compat=0 / constrained_intra=0 / bframes=9 / b_pyramid=2 / b_adapt=2 / b_bias=0 / direct=3 / weightb=1 / open_gop=0 / weightp=2 / keyint=250 / keyint_min=25 / scenecut=40 / intra_refresh=0 / rc=2pass / mbtree=0 / bitrate=2250 / ratetol=1.0 / qcomp=0.60 / qpmin=0 / qpmax=69 / qpstep=4 / cplxblur=20.0 / qblur=0.5 / ip_ratio=1.40 / pb_ratio=1.30 / aq=1:1.00
Default : Да
Forced : Нет

Аудио
Идентификатор : 2
Формат : AC-3
Формат/Информация : Audio Coding 3
Идентификатор кодека : A_AC3
Продолжительность : 1 ч. 34 м.
Вид битрейта : Постоянный
Битрейт : 192 Кбит/сек
Каналы : 2 канала
Расположение каналов : Front: L R
Частота : 44,1 КГц
Частота кадров : 28,711 кадров/сек (1536 SPF)
Битовая глубина : 16 бит
Метод сжатия : С потерями
Размер потока : 130 Мбайт (8%)
ServiceKind/String : Complete Main
Default : Да
Forced : Нет














   Похожие торренты   Торрент   Размер 
В этой теме нет новых непрочитанных сообщений. Коронация / Матильда (1-4 серии из 4) (Алексей Учитель) [2018, драма, история, триллер, WEB-DLRip-AVC]

18 | 0

3.14 ГБ

В этой теме нет новых непрочитанных сообщений. Дылды (1-7 серии из 21) (Сергей Сенцов) [2019, комедия, спорт, WEB-DLRip-AVC]

26 | 20

2.11 ГБ

В этой теме нет новых непрочитанных сообщений. Дылды (1-5 серии из 21) (Сергей Сенцов) [2019, комедия, спорт, WEB-DLRip-AVC]

16 | 6

1.52 ГБ

В этой теме нет новых непрочитанных сообщений. СеняФедя (3 сезон 1-5 серии из 12) (Юрий Владовский) [2019, комедия, WEB-DLRip-AVC]

0 | 0

1.51 ГБ

В этой теме нет новых непрочитанных сообщений. СеняФедя (3 сезон 1-4 серии из 12) (Юрий Владовский) [2019, комедия, WEB-DLRip-AVC]

0 | 0

1.23 ГБ

В этой теме нет новых непрочитанных сообщений. СеняФедя (3 сезон 1-2 серии из 12) (Юрий Владовский) [2019, комедия, WEB-DLRip-AVC]

10 | 0

634.07 МБ

В этой теме нет новых непрочитанных сообщений. Дорогой папа (Михаил Расходников) [2019, комедия, семейный, WEB-DLRip-AVC]

55 | 1

1.4 ГБ




Вы не можете начинать темы
Вы не можете отвечать на сообщения
Вы не можете редактировать свои сообщения
Вы не можете удалять свои сообщения
Вы не можете добавлять вложения

Перейти:  
 Вход
ppkBB3cker v.2 © 2008-2014 @ PPK
[ Time : 0.026s | 17 Queries | GZIP : Off ]

cron