img image001 image001 image001 image001 image001 image001 image001 image001 image001 image001 image001 image001 image001 image001 image001

Planets Sun Sun Sun
Статистика раздачи
Автор: Снежана | Размер: 4.45 ГБ | Добавлен: 08 окт 2019
Раздают: 5    Качают: 0
Скачать торрент
Скачать торрент
Описание торрента

СообщениеДобавлено: 08 окт 2019 

Письмо по ошибке (1-4 серии из 4)

Страна: Украина
Перевод: не требуется
Формат: WEB-DL 720p, MKV, H.264, AC3
Режиссер: Игорь Забара
Жанр: мелодрама
Продолжительность: 4 х ~ 00:42:36
Год выпуска: 2018

В ролях: Елизавета Фалей, Александр Ведменский, Дарья Трегубова, Ольга Сумская, Евгения Мякенькая, Михаил Досенко, Сергей Шляхтюк, Николай Бутковский, Алиция Омельчук, Ольга Морозова, Ольга Зиневич, Артём Емцов, Елена Хижная, Сергей Дзялик, Владимир Юдин, Александр Юдин (IV), Лев Сомов, Евгений Синчуков

Описание: В центре сюжета – Аня, которая работает архитектором в крупной компании и мечтает получить должность старшего архитектора. Но на пути к повышению стоит строгая и придирчивая начальница Света: та заваливает презентацию проекта, который Аня готовила для руководства. Девушка понимает, что с такой начальницей ей будет непросто. Впрочем, Света готовится к свадьбе, и Аня надеется, что, возможно, это событие отвлечет начальницу от работы и вечных придирок...

Рейтинг и доп. информация:


Видео: 1280x720 (16:9), 25 fps, AVC MPEG-4 (x264), ~ 3500 kbps avg, 0.152 bit/pixel
Аудио: 44,1 kHz, AC3, 2/0 (L,R) ch, ~192 kbps
Общее
Уникальный идентификатор : 134696469836350483259862476498495998108 (0x655598B200BACEE0B6EF6D62A806089C)
Полное имя : C:\Users\Валерий\Desktop\Новая папка\Письмо по ошибке .(2018).WEB-DL (720p).by.Nicodem.Files-x\01.Письмо по ошибке .(2018).WEB-DL (720p).by.Nicodem.Files-x.mkv
Формат : Matroska
Версия формата : Version 4
Размер файла : 1,09 Гбайт
Продолжительность : 42 м. 36 с.
Общий поток : 3677 Кбит/сек
Программа кодирования : Lavf56.36.100
Библиотека кодирования : Lavf56.36.100

Видео
Идентификатор : 1
Формат : AVC
Формат/Информация : Advanced Video Codec
Профиль формата :
Настройки формата : CABAC / 5 Ref Frames
Параметр CABAC формата : Да
Параметр RefFrames формата : 5 кадров
Идентификатор кодека : V_MPEG4/ISO/AVC
Продолжительность : 42 м. 36 с.
Битрейт : 3500 Кбит/сек
Ширина : 1280 пикселей
Высота : 720 пикселей
Соотношение сторон : 16:9
Режим частоты кадров : Постоянный
Частота кадров : 25,000 кадров/сек
Цветовое пространство : YUV
Субдискретизация насыщенности : 4:2:0
Битовая глубина : 8 бит
Тип развёртки : Прогрессивная
Бит/(Пиксели*Кадры) : 0.152
Размер потока : 1,02 Гбайт (93%)
Библиотека кодирования : x264 core 148
Настройки программы : cabac=1 / ref=5 / deblock=1:0:0 / analyse=0x3:0x113 / me=hex / subme=8 / psy=1 / psy_rd=1.00:0.00 / mixed_ref=1 / me_range=16 / chroma_me=1 / trellis=2 / 8x8dct=1 / cqm=0 / deadzone=21,11 / fast_pskip=1 / chroma_qp_offset=-2 / threads=22 / lookahead_threads=3 / sliced_threads=0 / nr=0 / decimate=1 / interlaced=0 / bluray_compat=0 / constrained_intra=0 / bframes=3 / b_pyramid=2 / b_adapt=1 / b_bias=0 / direct=3 / weightb=1 / open_gop=0 / weightp=2 / keyint=250 / keyint_min=25 / scenecut=0 / intra_refresh=0 / rc_lookahead=50 / rc=abr / mbtree=1 / bitrate=3500 / ratetol=1.0 / qcomp=0.60 / qpmin=0 / qpmax=69 / qpstep=4 / ip_ratio=1.40 / aq=1:1.00
Default : Да
Forced : Нет

Аудио
Идентификатор : 2
Формат : AC-3
Формат/Информация : Audio Coding 3
Коммерческое название : Dolby Digital
Идентификатор кодека : A_AC3
Продолжительность : 42 м. 36 с.
Вид битрейта : Постоянный
Битрейт : 192 Кбит/сек
Каналы : 2 канала
ChannelLayout : L R
Частота : 44,1 КГц
Частота кадров : 28,711 кадров/сек (1536 SPF)
Метод сжатия : С потерями
Задержка видео : -80 мс.
Размер потока : 58,5 Мбайт (5%)
Язык : unknown
ServiceKind/String : Complete Main
Default : Да
Forced : Нет










   Похожие торренты   Торрент   Размер 
В этой теме нет новых непрочитанных сообщений. Письмо по ошибке (1-4 серии из 4) (Игорь Забара) [2018, мелодрама, WEB-DLRip]

17 | 2

2.35 ГБ

В этой теме нет новых непрочитанных сообщений. Искушение / Радуга любви (1-8 серии из 24) (Игорь Забара, Сергей Терещук) [2018, мелодрама, HDTVRip 720p]

10 | 0

9.28 ГБ

В этой теме нет новых непрочитанных сообщений. Искушение / Радуга любви (1-4 серии из 24) (Игорь Забара, Сергей Терещук) [2018, мелодрама, HDTVRip 720p]

2 | 0

4.65 ГБ

В этой теме нет новых непрочитанных сообщений. Искушение / Радуга любви (1-2 сезоны 1-26 серии из 48) (Игорь Забара, Сергей Терещук) [2018, мелодрама, HDTVRip 720p]

11 | 5

30.69 ГБ

В этой теме нет новых непрочитанных сообщений. Искушение / Радуга любви (1-2 сезоны 1-16 серии из 48) (Игорь Забара, Сергей Терещук) [2018, мелодрама, HDTVRip 720p]

7 | 0

18.58 ГБ

В этой теме нет новых непрочитанных сообщений. Искушение / Радуга любви (1-2 сезоны 1-22 серии из 48) (Игорь Забара, Сергей Терещук) [2018, мелодрама, HDTVRip 720p]

7 | 12

25.81 ГБ

В этой теме нет новых непрочитанных сообщений. Искушение / Радуга любви (1-16 серии из 24) (Игорь Забара, Сергей Терещук) [2018, мелодрама, HDTVRip]

0 | 4

8.42 ГБ




Вы не можете начинать темы
Вы не можете отвечать на сообщения
Вы не можете редактировать свои сообщения
Вы не можете удалять свои сообщения
Вы не можете добавлять вложения

Перейти:  
 Вход
ppkBB3cker v.2 © 2008-2014 @ PPK
[ Time : 0.017s | 18 Queries | GZIP : Off ]

cron