img image001 image001 image001 image001 image001 image001 image001 image001 image001 image001 image001 image001 image001 image001 image001

Planets Sun Sun Sun
Статистика раздачи
Автор: Снежана | Размер: 1.46 ГБ | Добавлен: 07 ноя 2019
Раздают: 40    Качают: 0
Скачать торрент
Скачать торрент
Описание торрента

СообщениеДобавлено: 07 ноя 2019 

Элефант

Формат: WEB-DLRip-AVC, MKV, H.264, AC3
Режиссер: Алексей Красовский
Жанр: комедия
Продолжительность: 01:15:46
Год выпуска: 2019

В ролях: Алексей Гуськов, Полина Агуреева, Евгения Дмитриева, Ян Цапник, Фредерик Бегбедер, Алиса Мынай, Ингрид Олеринская, Геннадий Смирнов, Игорь Хрипунов, Сергей Колос, Юлия Топольницкая, Надежда Толубеева, Михаил Касапов, Алиса Слепян, Максим Белбородов, Ольга Кирсанова-Миропольская, Полина Войченко

Описание: У добрых книжек про Слона Мишку был очень злобный автор. И, даже когда Валентину Шубину из-за болезни пересадили новое сердце, он предпочел, чтобы все прочее оставалось старым. Шубин давно развелся с женой и поссорился с дочерью, ради которой когда-то писал свои истории. Но писать продолжение он не хочет, тем более в компании навязанной ему приставучей сиделки. Хуже которой лишь то, что теперь у Шубина в самый неподходящий момент непроизвольно текут слезы…

Рейтинг и доп. информация:


Видео: 1024x430, (2,40:1), 25 fps, AVC MPEG-4 (x264), ~ 2375 kbps , 0.216 bit/pixel
Аудио: 48 kHz, AC3 Dolby Digital, 3/2 (L,C,R,l,r) + LFE ch, ~384 kbps
Общее
Уникальный идентификатор : 151206472223327756793100426151747187526 (0x71C14EA8DA9A9E48E6A01CDD4150F346)
Полное имя : G:ELEFANT (2019) WEB-DLRip(AVC).mkv
Формат : Matroska
Версия формата : Version 4 / Version 2
Размер файла : 1,46 Гбайт
Продолжительность : 1 ч. 15 м.
Общий поток : 2759 Кбит/сек
Название фильма : Элефант (2019)
Дата кодирования : UTC 2019-11-06 09:33:46
Программа кодирования : mkvmerge v38.0.0 (''The Silent Type'') 64-bit
Библиотека кодирования : libebml v1.3.9 + libmatroska v1.5.2
Обложка : Yes
Attachments : cover.jpg

Видео
Идентификатор : 1
Формат : AVC
Формат/Информация : Advanced Video Codec
Профиль формата :
Настройки формата : CABAC / 10 Ref Frames
Параметр CABAC формата : Да
Параметр RefFrames формата : 10 кадров
Идентификатор кодека : V_MPEG4/ISO/AVC
Продолжительность : 1 ч. 15 м.
Битрейт : 2375 Кбит/сек
Ширина : 1024 пикселя
Высота : 430 пикселей
Соотношение сторон : 2,40:1
Режим частоты кадров : Постоянный
Частота кадров : 25,000 кадров/сек
Цветовое пространство : YUV
Субдискретизация насыщенности : 4:2:0
Битовая глубина : 8 бит
Тип развёртки : Прогрессивная
Бит/(Пиксели*Кадры) : 0.216
Размер потока : 1,26 Гбайт (86%)
Заголовок : #sillet
Библиотека кодирования : x264 core 152 r2851bm ba24899
Настройки программы : cabac=1 / ref=10 / deblock=1:-3:-2 / analyse=0x3:0x133 / me=umh / subme=11 / psy=1 / psy_rd=1.00:0.15 / mixed_ref=1 / me_range=32 / chroma_me=1 / trellis=2 / 8x8dct=1 / cqm=0 / deadzone=21,11 / fast_pskip=0 / chroma_qp_offset=-3 / threads=9 / lookahead_threads=2 / sliced_threads=0 / nr=0 / decimate=0 / interlaced=0 / bluray_compat=0 / constrained_intra=0 / bframes=10 / b_pyramid=2 / b_adapt=2 / b_bias=0 / direct=3 / weightb=1 / open_gop=0 / weightp=2 / keyint=250 / keyint_min=25 / scenecut=40 / intra_refresh=0 / rc=2pass / mbtree=0 / bitrate=2375 / ratetol=1.0 / qcomp=0.60 / qpmin=0 / qpmax=69 / qpstep=4 / cplxblur=20.0 / qblur=0.5 / ip_ratio=1.40 / pb_ratio=1.30 / aq=1:1.00
Язык : English
Default : Да
Forced : Нет

Аудио
Идентификатор : 2
Формат : AC-3
Формат/Информация : Audio Coding 3
Идентификатор кодека : A_AC3
Продолжительность : 1 ч. 15 м.
Вид битрейта : Постоянный
Битрейт : 384 Кбит/сек
Каналы : 6 каналов
Расположение каналов : Front: L C R, Side: L R, LFE
Частота : 48,0 КГц
Частота кадров : 31,250 кадров/сек (1536 SPF)
Битовая глубина : 16 бит
Метод сжатия : С потерями
Размер потока : 208 Мбайт (14%)
Заголовок : iTunes
Язык : Russian
Default : Да
Forced : Нет










   Похожие торренты   Торрент   Размер 
В этой теме нет новых непрочитанных сообщений. Элефант (Алексей Красовский) [2019, комедия, WEB-DLRip]

28 | 1

744.23 МБ

В этой теме нет новых непрочитанных сообщений. Элефант (Алексей Красовский) [2019, комедия, WEB-DL 720p]

22 | 0

2.06 ГБ

В этой теме нет новых непрочитанных сообщений. Бедная Liz (Алексей Лисовец) [2013, комедия, WEB-DLRip-AVC]

3 | 0

1.62 ГБ

В этой теме нет новых непрочитанных сообщений. Волшебник (Михаил Морсков) [2019, комедия, драма, WEB-DLRip-AVC]

64 | 1

1.46 ГБ

В этой теме нет новых непрочитанных сообщений. СеняФедя (3 сезон 1-6 серии из 12) (Юрий Владовский) [2019, комедия, WEB-DLRip-AVC]

0 | 0

1.82 ГБ

В этой теме нет новых непрочитанных сообщений. Дылды (1-11 серии из 21) (Сергей Сенцов) [2019, комедия, спорт, WEB-DLRip-AVC]

18 | 19

3.32 ГБ

В этой теме нет новых непрочитанных сообщений. СеняФедя (3 сезон 1-9 серии из 12) (Юрий Владовский) [2019, комедия, WEB-DLRip-AVC]

0 | 0

2.7 ГБ




Вы не можете начинать темы
Вы не можете отвечать на сообщения
Вы не можете редактировать свои сообщения
Вы не можете удалять свои сообщения
Вы не можете добавлять вложения

Перейти:  
 Вход
ppkBB3cker v.2 © 2008-2014 @ PPK
[ Time : 0.021s | 16 Queries | GZIP : Off ]

cron