img image001 image001 image001 image001 image001 image001 image001 image001 image001 image001 image001 image001 image001 image001 image001

Planets Sun Sun Sun
Статистика раздачи
Автор: Снежана | Размер: 2.06 ГБ | Добавлен: 07 ноя 2019
Раздают: 26    Качают: 3
Скачать торрент
Скачать торрент
Описание торрента

СообщениеДобавлено: 07 ноя 2019 

Элефант

Формат: WEB-DL 720p, MKV, H.264, AC3
Режиссер: Алексей Красовский
Жанр: комедия
Продолжительность: 01:15:45
Год выпуска: 2019

В ролях: Алексей Гуськов, Полина Агуреева, Евгения Дмитриева, Ян Цапник, Фредерик Бегбедер, Алиса Мынай, Ингрид Олеринская, Геннадий Смирнов, Игорь Хрипунов, Сергей Колос, Юлия Топольницкая, Надежда Толубеева, Михаил Касапов, Алиса Слепян, Максим Белбородов, Ольга Кирсанова-Миропольская, Полина Войченко

Описание: У добрых книжек про Слона Мишку был очень злобный автор. И, даже когда Валентину Шубину из-за болезни пересадили новое сердце, он предпочел, чтобы все прочее оставалось старым. Шубин давно развелся с женой и поссорился с дочерью, ради которой когда-то писал свои истории. Но писать продолжение он не хочет, тем более в компании навязанной ему приставучей сиделки. Хуже которой лишь то, что теперь у Шубина в самый неподходящий момент непроизвольно текут слезы…

Рейтинг и доп. информация:


Видео: 1280x538, (2,40:1), 25 fps, AVC MPEG-4 (x264), ~ 3504 kbps , 0.204 bit/pixel
Аудио: 48 kHz, AC3 Dolby Digital, 3/2 (L,C,R,l,r) + LFE ch, ~384 kbps
Общее
Формат : Matroska
Версия формата : Version 4
Размер файла : 2,06 Гбайт
Продолжительность : 1 ч. 15 м.
Общий поток : 3890 Кбит/сек
Название фильма : Elefant.2019
Дата кодирования : UTC 2019-11-06 07:39:15
Программа кодирования : mkvmerge v39.0.0 (''In The Waiting Line'') 64-bit
Библиотека кодирования : libebml v1.3.9 + libmatroska v1.5.2 / Lavf57.71.100

Видео
Идентификатор : 1
Формат : AVC
Формат/Информация : Advanced Video Codec
Профиль формата :
Настройки формата : CABAC / 1 Ref Frames
Параметр CABAC формата : Да
Параметр RefFrames формата : 1 кадр
Идентификатор кодека : V_MPEG4/ISO/AVC
Продолжительность : 1 ч. 15 м.
Битрейт : 3504 Кбит/сек
Ширина : 1280 пикселей
Высота : 538 пикселей
Соотношение сторон : 2,40:1
Режим частоты кадров : Постоянный
Частота кадров : 25,000 кадров/сек
Цветовое пространство : YUV
Субдискретизация насыщенности : 4:2:0
Битовая глубина : 8 бит
Тип развёртки : Прогрессивная
Бит/(Пиксели*Кадры) : 0.204
Размер потока : 1,85 Гбайт (90%)
Default : Да
Forced : Нет

Аудио
Идентификатор : 2
Формат : AC-3
Формат/Информация : Audio Coding 3
Коммерческое название : Dolby Digital
Идентификатор кодека : A_AC3
Продолжительность : 1 ч. 15 м.
Вид битрейта : Постоянный
Битрейт : 384 Кбит/сек
Каналы : 6 каналов
ChannelLayout : L R C LFE Ls Rs
Частота : 48,0 КГц
Частота кадров : 31,250 кадров/сек (1536 SPF)
Метод сжатия : С потерями
Размер потока : 208 Мбайт (10%)
ServiceKind : Complete Main
Default : Да
Forced : Нет






   Похожие торренты   Торрент   Размер 
В этой теме нет новых непрочитанных сообщений. Элефант (Алексей Красовский) [2019, комедия, WEB-DLRip]

28 | 1

744.23 МБ

В этой теме нет новых непрочитанных сообщений. Элефант (Алексей Красовский) [2019, комедия, WEB-DLRip-AVC]

55 | 3

1.46 ГБ

В этой теме нет новых непрочитанных сообщений. Бедная Liz (Алексей Лисовец) [2013, комедия, WEB-DLRip-AVC]

3 | 0

1.62 ГБ

В этой теме нет новых непрочитанных сообщений. СеняФедя (3 сезон 1-6 серии из 12) (Юрий Владовский) [2019, комедия, WEB-DL 720p]

0 | 0

3.21 ГБ

В этой теме нет новых непрочитанных сообщений. СеняФедя (3 сезон 1-16 серии из 17) (Юрий Владовский) [2019, комедия, WEB-DL 720p]

0 | 0

8.36 ГБ

В этой теме нет новых непрочитанных сообщений. Дылды (1-18 серии из 21) (Сергей Сенцов) [2019, комедия, спорт, WEB-DL 720p]

84 | 485

10.58 ГБ

В этой теме нет новых непрочитанных сообщений. Дылды (1-6 серии из 21) (Сергей Сенцов) [2019, комедия, спорт, WEB-DL 720p]

15 | 23

5.25 ГБ




Вы не можете начинать темы
Вы не можете отвечать на сообщения
Вы не можете редактировать свои сообщения
Вы не можете удалять свои сообщения
Вы не можете добавлять вложения

Перейти:  
 Вход
ppkBB3cker v.2 © 2008-2014 @ PPK
[ Time : 0.035s | 16 Queries | GZIP : Off ]

cron