img image001 image001 image001 image001 image001 image001 image001 image001 image001 image001 image001 image001 image001 image001 image001

Planets Sun Sun Sun
Статистика раздачи
Автор: Снежана | Размер: 2.9 ГБ | Добавлен: 08 ноя 2019
Раздают: 16    Качают: 2
Скачать торрент
Скачать торрент
Описание торрента

СообщениеДобавлено: 08 ноя 2019 

Пиковая дама: Зазеркалье

Формат: BDRip 720p, MKV, H.264, AC3
Режиссер: Александр Домогаров мл.
Жанр: ужасы, мистика
Продолжительность: 01:23:37
Год выпуска: 2019

В ролях: Ангелина Стречина, Даниил Муравьев-Изотов, Владислав Коноплёв, Владимир Канухин, Анастасия Талызина, Алёна Швиденкова, Клаудиа Бочар, Валерий Панков, Дарья Белоусова, Владимир Кошевой, Дмитрий Куличков, Татьяна Кузнецова, Виолетта Давыдовская, Ольга Родина, Дмитрий Росляков, Игорь Яшанин, Ян Алабушев, Екатерина Антипова, Полина Долинская, Георгий Михеев

Описание: Зловещий призрак Пиковой Дамы снова жаждет крови, и на этот раз его жертвами становятся воспитанники школы-интерната, расположенного в старинном особняке, окутанном мрачными слухами. Развлекая друг друга страшилками об убийствах детей, которые совершались в этом доме в позапрошлом столетии, подростки находят в заброшенном крыле здания таинственное зеркало, покрытое загадочными рисунками. Ради шутки, ученики проводят перед этим зеркалом мистический обряд вызова духа Пиковой Дамы и загадывают самые сокровенные желания, надеясь, что призрак их исполнит. Шутники не подозревают о том, что платой за выполнение каждой прихоти станут их собственные души – и что Пиковая Дама не успокоится, пока не получит их все.

Рейтинг и доп. информация:


Видео: 1280x536, (2,40:1), 24 fps, AVC MPEG-4 (x264), ~ 4334 kbps , 0.263 bit/pixel
Аудио: 48 kHz, AC3 Dolby Digital, 3/2 (L,C,R,l,r) + LFE ch, ~448 kbps [Лицензия Blu-Ray GER]
General
Unique ID : 215178952360555082283331000573900988391 (0xA1E1F5724C6AB69CAAEED494519D9FE7)
Complete name : F:Pikovaya.dama.Zazerkalye.2019.2019.BDRip.720p.ExKinoRay.mkv
Format : Matroska
Format version : Version 2
File size : 2.90 GiB
Duration : 1 h 23 min
Overall bit rate : 4 961 kb/s
Movie name : Пиковая дама: Зазеркалье 2019 from ExKinoRay
Encoded date : UTC 2019-11-07 12:06:29
Writing application : mkvmerge v5.6.0 (''Kenya Kane'') built on May 27 2012 16:44:04
Writing library : libebml v1.2.3 + libmatroska v1.3.0

Video
ID : 1
Format : AVC
Format/Info : Advanced Video Codec
Format profile :
Format settings, CABAC : Yes
Format settings, ReFrames : 12 frames
Codec ID : V_MPEG4/ISO/AVC
Duration : 1 h 23 min
Bit rate : 4 334 kb/s
Width : 1 280 pixels
Height : 536 pixels
Display aspect ratio : 2.40:1
Frame rate mode : Constant
Frame rate : 24.000 FPS
Color space : YUV
Chroma subsampling : 4:2:0
Bit depth : 8 bits
Scan type : Progressive
Bits/(Pixel*Frame) : 0.263
Stream size : 2.47 GiB (85%)
Title : Enigma
Writing library : x264 core 152 r2851 ba24899
Encoding settings : cabac=1 / ref=12 / deblock=1:-2:-2 / analyse=0x3:0x113 / me=umh / subme=11 / psy=1 / psy_rd=0.98:0.05 / mixed_ref=1 / me_range=32 / chroma_me=1 / trellis=2 / 8x8dct=1 / cqm=0 / deadzone=21,11 / fast_pskip=0 / chroma_qp_offset=-3 / threads=12 / lookahead_threads=3 / sliced_threads=0 / nr=0 / decimate=0 / interlaced=0 / bluray_compat=0 / constrained_intra=0 / bframes=12 / b_pyramid=2 / b_adapt=2 / b_bias=0 / direct=3 / weightb=1 / open_gop=0 / weightp=2 / keyint=240 / keyint_min=24 / scenecut=40 / intra_refresh=0 / rc=2pass / mbtree=0 / bitrate=4334 / ratetol=1.0 / qcomp=0.65 / qpmin=0 / qpmax=51 / qpstep=4 / cplxblur=20.0 / qblur=0.5 / ip_ratio=1.40 / pb_ratio=1.30 / aq=1:1.00
Language : English
Default : Yes
Forced : No
Color range : Limited
Color primaries : BT.709
Transfer characteristics : BT.709
Matrix coefficients : BT.709

Audio
ID : 2
Format : AC-3
Format/Info : Audio Coding 3
Mode extension : CM (complete main)
Format settings, Endianness : Big
Codec ID : A_AC3
Duration : 1 h 23 min
Bit rate mode : Constant
Bit rate : 640 kb/s
Channel(s) : 6 channels
Channel positions : Front: L C R, Side: L R, LFE
Sampling rate : 48.0 kHz
Frame rate : 31.250 FPS (1536 spf)
Compression mode : Lossy
Stream size : 383 MiB (13%)
Title : AC3, Blu-Ray
Language : Russian
Default : Yes
Forced : No

Menu
00:00:00.000 : :Chapter 01
00:07:24.458 : :Chapter 02
00:11:44.958 : :Chapter 03
00:18:47.083 : :Chapter 04
00:25:13.833 : :Chapter 05
00:31:57.041 : :Chapter 06
00:43:59.541 : :Chapter 07
00:49:51.875 : :Chapter 08
00:55:04.500 : :Chapter 09
01:04:10.250 : :Chapter 10
01:13:30.375 : :Chapter 11
01:19:19.416 : :Chapter 12
01:23:20.416 : :Chapter 13
01:23:36.957 : :Chapter 14






   Похожие торренты   Торрент   Размер 
В этой теме нет новых непрочитанных сообщений. Пиковая дама: Зазеркалье (Александр Домогаров мл.) [2019, ужасы, мистика, BDRip] / Мистика

50 | 4

1.46 ГБ

В этой теме нет новых непрочитанных сообщений. Пиковая дама: Зазеркалье (Александр Домогаров мл.) [2019, ужасы, мистика, BDRip] / Мистика

7 | 0

1.46 ГБ

В этой теме нет новых непрочитанных сообщений. Пиковая дама: Зазеркалье (Александр Домогаров мл.) [2019, ужасы, мистика, BDRip-AVC] / Мистика

5 | 0

1.46 ГБ

В этой теме нет новых непрочитанных сообщений. Пиковая дама: Зазеркалье (Александр Домогаров мл.) [2019, ужасы, мистика, HDRip] / Мистика

21 | 0

744.12 МБ

В этой теме нет новых непрочитанных сообщений. Пиковая дама: Зазеркалье (Александр Домогаров мл.) [2019, ужасы, мистика, WEB-DLRip] / Мистика

246 | 2

1.46 ГБ

В этой теме нет новых непрочитанных сообщений. Пиковая дама: Зазеркалье (Александр Домогаров мл.) [2019, ужасы, мистика, WEB-DLRip] / Мистика

16 | 2

745.56 МБ

В этой теме нет новых непрочитанных сообщений. Пиковая дама: Зазеркалье (Александр Домогаров мл.) [2019, ужасы, мистика, WEB-DLRip-AVC] / Мистика

1 | 1

1.16 ГБ




Вы не можете начинать темы
Вы не можете отвечать на сообщения
Вы не можете редактировать свои сообщения
Вы не можете удалять свои сообщения
Вы не можете добавлять вложения

Перейти:  
 Вход
ppkBB3cker v.2 © 2008-2014 @ PPK
[ Time : 0.035s | 16 Queries | GZIP : Off ]

cron