img image001 image001 image001 image001 image001 image001 image001 image001 image001 image001 image001 image001 image001 image001 image001

Planets Sun Sun Sun
Статистика раздачи
Автор: Снежана | Размер: 2.59 ГБ | Добавлен: 02 дек 2019
Раздают: 7    Качают: 0
Скачать торрент
Скачать торрент
Описание торрента

СообщениеДобавлено: 02 дек 2019 

Личное пространство (1-4 серии из 4)

Формат: WEB-DLRip-AVC, MKV, H.264, AC3
Режиссер: Станислав Митин
Жанр: мелодрама
Продолжительность: 4 x ~ 00:51:24
Год выпуска: 2016

В ролях: Юрий Батурин, Юлия Ауг, Анна Лутцева, Фёдор Лавров, Михаил Гаврилов (II), Дарья Шевчук, Георгий Тараторкин, Лариса Малеванная, Игорь Ясулович, Василий Симонов, Владимир Шахиджанян, Галина Сергеева, Елена Фомина, Саша Иванов (II), Алексей Измайлов, Татьяна Лугачева, Александра Николаева (II), Юрий Теплов, Сергей Кондаков, Алина Колкер, Андрей Коряков, Анжелика Панкова, Михаил Гусев, Лариса Сухорукова, Дарья Плавинская, Татьяна Морозова (V), Павел Степанов (II), Дмитрий Волов, Элеонора Ильченко, Александр Крайнов, Елена Соколова, Анастасия Курапова, Армен Филиппов, Александр Зверяко, Андрей Журавлев, Максим Немцов, Валентина Левчукова, Андрей Бычко, Кирилл Чугунов, Кристина Голбан

Описание: У профессора Владимира Сергеевича Колоскова все хорошо. Любимая работа и дружная семья. Мать и жена прекрасно ладят, с дочерью полное понимание. Есть еще обаятельная секретарша Эля, но тут тоже все замечательно и есть договоренность ничего не усложнять. Культивируемое Колосковым понятие личного пространства позволяет профессору, искренне считая себя порядочным человеком, создавать определенный размеренный уклад повседневной жизни. Но в один момент эта хрупкая условная гармония неминуемо рушится. Личное пространство стремительно расширяется и, оказывается, что там невыносимо пусто...

Рейтинг и доп. информация:


Видео: 1024x576, (16:9), 25 fps, AVC MPEG-4 (x264), ~ 1600 kbps , 0.109 bit/pixel
Аудио: 48 kHz, АС3, 2/0 (L,R), ~192.00 kbps avg
Общее
Уникальный идентификатор : 198069124907322731694217672104795368540 (0x9502B9D2BB495E3B8429BAE239CEEC5C)
Полное имя : C:\Личное пространство.(2016).WEB-DLRip.(AVC).Files-x\01.Личное пространство.(2016).WEB-DLRip.(AVC).by.Серый1779.Files-x.mkv
Формат : Matroska
Версия формата : Version 2
Размер файла : 659 Мбайт
Продолжительность : 51 м. 24 с.
Общий поток : 1793 Кбит/сек
Дата кодирования : UTC 2019-11-28 17:25:37
Программа кодирования : mkvmerge v7.8.0 (''River Man'') 32bit built on Apr 3 2015 12:11:22
Библиотека кодирования : libebml v1.3.1 + libmatroska v1.4.2

Видео
Идентификатор : 1
Формат : AVC
Формат/Информация : Advanced Video Codec
Профиль формата :
Настройки формата : CABAC / 9 Ref Frames
Параметр CABAC формата : Да
Параметр RefFrames формата : 9 кадров
Идентификатор кодека : V_MPEG4/ISO/AVC
Продолжительность : 51 м. 24 с.
Битрейт : 1600 Кбит/сек
Ширина : 1024 пикселя
Высота : 576 пикселей
Соотношение сторон : 16:9
Режим частоты кадров : Постоянный
Частота кадров : 25,000 кадров/сек
Цветовое пространство : YUV
Субдискретизация насыщенности : 4:2:0
Битовая глубина : 8 бит
Тип развёртки : Прогрессивная
Бит/(Пиксели*Кадры) : 0.109
Размер потока : 575 Мбайт (87%)
Библиотека кодирования : x264 core 146 r2538 121396c
Настройки программы : cabac=1 / ref=9 / deblock=1:-2:-1 / analyse=0x3:0x133 / me=umh / subme=9 / psy=1 / psy_rd=1.00:0.15 / mixed_ref=1 / me_range=32 / chroma_me=1 / trellis=2 / 8x8dct=1 / cqm=0 / deadzone=21,11 / fast_pskip=0 / chroma_qp_offset=-3 / threads=18 / lookahead_threads=3 / sliced_threads=0 / nr=0 / decimate=1 / interlaced=0 / bluray_compat=0 / constrained_intra=0 / bframes=9 / b_pyramid=2 / b_adapt=2 / b_bias=0 / direct=1 / weightb=1 / open_gop=0 / weightp=2 / keyint=250 / keyint_min=25 / scenecut=40 / intra_refresh=0 / rc=2pass / mbtree=0 / bitrate=1600 / ratetol=1.0 / qcomp=0.60 / qpmin=0 / qpmax=69 / qpstep=4 / cplxblur=20.0 / qblur=0.5 / ip_ratio=1.40 / pb_ratio=1.30 / aq=2:1.00
Default : Да
Forced : Нет
Цветовой диапазон : Limited
Основные цвета : BT.709
Характеристики трансфера : BT.709
Коэффициенты матрицы : BT.709

Аудио
Идентификатор : 2
Формат : AC-3
Формат/Информация : Audio Coding 3
Коммерческое название : Dolby Digital
Идентификатор кодека : A_AC3
Продолжительность : 51 м. 24 с.
Вид битрейта : Постоянный
Битрейт : 192 Кбит/сек
Каналы : 2 канала
ChannelLayout : L R
Частота : 48,0 КГц
Частота кадров : 31,250 кадров/сек (1536 SPF)
Метод сжатия : С потерями
Размер потока : 70,6 Мбайт (11%)
ServiceKind/String : Complete Main
Default : Да
Forced : Нет






   Похожие торренты   Торрент   Размер 
В этой теме нет новых непрочитанных сообщений. Личное пространство (1-4 серии из 4) (Станислав Митин) [2016, мелодрама, WEB-DLRip]

22 | 2

2.6 ГБ

В этой теме нет новых непрочитанных сообщений. Ковбои (1-16 серии из 16) (Станислав Титаренко) [2013, боевик, детектив, криминал, WEB-DLRip-AVC, HDTVRip-AVC]

1 | 3

9.84 ГБ

В этой теме нет новых непрочитанных сообщений. Садовница (1-4 серии из 4) (Александр Будённый) [2019, мелодрама, WEB-DLRip-AVC]

11 | 0

2.38 ГБ

В этой теме нет новых непрочитанных сообщений. Ее мужчины (1-4 серии из 4) (Виктор Кустов) [2019, комедия, мелодрама, WEB-DLRip-AVC]

0 | 2

2.67 ГБ

В этой теме нет новых непрочитанных сообщений. Без колебаний (1-4 серии из 4) (Анатолий Григорьев) [2019, мелодрама, WEB-DLRip-AVC]

10 | 1

2.35 ГБ

В этой теме нет новых непрочитанных сообщений. Утраченные воспоминания (1-4 серии из 4) (Роман Барабаш) [2019, мелодрама, WEB-DLRip-AVC]

13 | 0

2.3 ГБ

В этой теме нет новых непрочитанных сообщений. Тайсон (1-4 серии из 4) (Александр Итыгилов мл.) [2019, криминал, мелодрама, WEB-DLRip-AVC]

52 | 6

2.3 ГБ




Вы не можете начинать темы
Вы не можете отвечать на сообщения
Вы не можете редактировать свои сообщения
Вы не можете удалять свои сообщения
Вы не можете добавлять вложения

Перейти:  
 Вход
ppkBB3cker v.2 © 2008-2014 @ PPK
[ Time : 0.018s | 16 Queries | GZIP : Off ]

cron