img image001 image001 image001 image001 image001 image001 image001 image001 image001 image001 image001 image001 image001 image001 image001

Planets Sun Sun Sun
Статистика раздачи
Автор: Снежана | Размер: 4.94 ГБ | Добавлен: 02 дек 2019
Раздают: 15    Качают: 0
Скачать торрент
Скачать торрент
Описание торрента

СообщениеДобавлено: 02 дек 2019 

Меня зовут Саша (1-4 серии из 4)

Формат: WEB-DL 720p, MKV, H.264, AC3
Режиссер: Кира Ангелина
Жанр: мелодрама
Продолжительность: 4 х 00:49:08
Год выпуска: 2019

В ролях: Евгения Вайс, Артём Карасев, Владимир Гориславец, Любовь Фирсова, Артём Карасев, Полина Пахомова, Лариса Иванова, Наталья Селиверстова, Андрей Харыбин, Екатерина Симаходская, Самвел Мужикян, Владимир Брест, Дмитрий Павленко, Александр Мякушко

Описание: Студентка мединститута Саша встречалась с женатым парнем и забеременела. Любимый мужчина потребовал избавиться от ребенка. Решив начать жизнь с чистого листа, Саша села на автобус до Москвы. На местах рядом с ней оказалась молодая пара – Миша и Вера. Приятное знакомство прервала страшная авария... Вера погибла, а Мишу и Сашу доставили в одну больницу. Когда Саша пришла в себя, то узнала, что Миша в коме, а ее все принимают за погибшую Веру… Признается ли Саша в своем обмане? Что будет, когда явится настоящий отец ее ребенка? И что скажет Миша, когда придет в себя и увидит свою случайную попутчицу? ...

Рейтинг и доп. информация:


Видео: 1280x720, (16:9), 25 fps, AVC MPEG-4 (x264), ~ 3500 kbps , 0.152 bit/pixel
Аудио: 44,1 kHz, АС3, 2/0 (L,R), ~192.00 kbps avg
Общее
Уникальный идентификатор : 126212955076360910127648786370170415578 (0x5EF3BB1FDFDFFB40C0A4C385987B69DA)
Полное имя : C:\Меня зовут Саша.(2019).WEB-DL (720p).by.Nicodem.Files-x\01.Меня зовут Саша.(2019).WEB-DL (720p).by.Nicodem.Files-x.mkv
Формат : Matroska
Версия формата : Version 4
Размер файла : 1,27 Гбайт
Продолжительность : 49 м. 8 с.
Общий поток : 3686 Кбит/сек
Программа кодирования : Lavf56.36.100
Библиотека кодирования : Lavf56.36.100

Видео
Идентификатор : 1
Формат : AVC
Формат/Информация : Advanced Video Codec
Профиль формата :
Настройки формата : CABAC / 5 Ref Frames
Параметр CABAC формата : Да
Параметр RefFrames формата : 5 кадров
Идентификатор кодека : V_MPEG4/ISO/AVC
Продолжительность : 49 м. 8 с.
Битрейт : 3500 Кбит/сек
Ширина : 1280 пикселей
Высота : 720 пикселей
Соотношение сторон : 16:9
Режим частоты кадров : Постоянный
Частота кадров : 25,000 кадров/сек
Цветовое пространство : YUV
Субдискретизация насыщенности : 4:2:0
Битовая глубина : 8 бит
Тип развёртки : Прогрессивная
Бит/(Пиксели*Кадры) : 0.152
Размер потока : 1,17 Гбайт (93%)
Библиотека кодирования : x264 core 148
Настройки программы : cabac=1 / ref=5 / deblock=1:0:0 / analyse=0x3:0x113 / me=hex / subme=8 / psy=1 / psy_rd=1.00:0.00 / mixed_ref=1 / me_range=16 / chroma_me=1 / trellis=2 / 8x8dct=1 / cqm=0 / deadzone=21,11 / fast_pskip=1 / chroma_qp_offset=-2 / threads=22 / lookahead_threads=3 / sliced_threads=0 / nr=0 / decimate=1 / interlaced=0 / bluray_compat=0 / constrained_intra=0 / bframes=3 / b_pyramid=2 / b_adapt=1 / b_bias=0 / direct=3 / weightb=1 / open_gop=0 / weightp=2 / keyint=250 / keyint_min=25 / scenecut=0 / intra_refresh=0 / rc_lookahead=50 / rc=abr / mbtree=1 / bitrate=3500 / ratetol=1.0 / qcomp=0.60 / qpmin=0 / qpmax=69 / qpstep=4 / ip_ratio=1.40 / aq=1:1.00
Default : Да
Forced : Нет

Аудио
Идентификатор : 2
Формат : AC-3
Формат/Информация : Audio Coding 3
Коммерческое название : Dolby Digital
Идентификатор кодека : A_AC3
Продолжительность : 49 м. 8 с.
Вид битрейта : Постоянный
Битрейт : 192 Кбит/сек
Каналы : 2 канала
ChannelLayout : L R
Частота : 44,1 КГц
Частота кадров : 28,711 кадров/сек (1536 SPF)
Метод сжатия : С потерями
Задержка видео : -80 мс.
Размер потока : 67,5 Мбайт (5%)
Язык : unknown
ServiceKind/String : Complete Main
Default : Да
Forced : Нет








   Похожие торренты   Торрент   Размер 
В этой теме нет новых непрочитанных сообщений. Меня зовут Саша (1-4 серии из 4) (Кира Ангелина) [2019, мелодрама, WEB-DLRip]

72 | 2

2.42 ГБ

В этой теме нет новых непрочитанных сообщений. Меня зовут Саша (1-4 серии из 4) (Кира Ангелина) [2019, мелодрама, WEB-DLRip-AVC]

7 | 1

2.41 ГБ

В этой теме нет новых непрочитанных сообщений. Заложники (1-2 серии из 2) (Кира Ангелина) [2019, мелодрама, триллер, WEB-DL 720p]

17 | 1

1.69 ГБ

В этой теме нет новых непрочитанных сообщений. Моя чужая дочка (1-4 серии из 4) (Кира Ангелина) [2019, мелодрама, WEB-DL 720p]

7 | 0

4.95 ГБ

В этой теме нет новых непрочитанных сообщений. Заложники (1-2 серии из 2) (Кира Ангелина) [2019, мелодрама, триллер, WEB-DLRip]

32 | 0

1.11 ГБ

В этой теме нет новых непрочитанных сообщений. Моя чужая дочка (1-4 серии из 4) (Кира Ангелина) [2019, мелодрама, WEB-DLRip]

29 | 4

2.43 ГБ

В этой теме нет новых непрочитанных сообщений. Заложники (1-2 серии из 2) (Кира Ангелина) [2019, мелодрама, триллер, WEB-DLRip-AVC]

11 | 1

1.1 ГБ




Вы не можете начинать темы
Вы не можете отвечать на сообщения
Вы не можете редактировать свои сообщения
Вы не можете удалять свои сообщения
Вы не можете добавлять вложения

Перейти:  
 Вход
ppkBB3cker v.2 © 2008-2014 @ PPK
[ Time : 0.019s | 16 Queries | GZIP : Off ]

cron