img image001 image001 image001 image001 image001 image001 image001 image001 image001 image001 image001 image001 image001 image001 image001

Planets Sun Sun Sun
Статистика раздачи
Автор: Снежана | Размер: 1.37 ГБ | Добавлен: 02 дек 2019
Раздают: 102    Качают: 3
Скачать торрент
Скачать торрент
Описание торрента

СообщениеДобавлено: 02 дек 2019 

Текст

Формат: WEBRip-AVC, MKV, H.264, AC3
Режиссер: Клим Шипенко
Жанр: драма, триллер
Продолжительность: 02:11:30
Год выпуска: 2019
В ролях: Александр Петров, Кристина Асмус, Иван Янковский, Софья Озерова, Максим Виноградов, Виталий Хаев, Дмитрий Глуховский ,Кирилл Нагиев, Елена Финогеева

Описание: Главный герой — 27-летний Илья Горюнов, семь лет отсидевший в тюрьме по ложному обвинению в распространении наркотиков. Когда Илья выходит на свободу, он понимает, что прежняя жизнь, по которой он тосковал, разрушена, и вернуться к ней он больше не сможет. Хотя он не собирался мстить человеку, который отправил его в тюрьму, другого выхода теперь нет. Встретившись лицом к лицу со своим обидчиком, Илья совершает необдуманный поступок, после которого главный герой получает доступ к смартфону Петра, а с ним и к жизни молодого человека — его фотографиям и видео, перепискам с родителями и девушкой Ниной, к странным, полным недомолвок и угроз переговорам с коллегами. На время Илья становится для всех Петром — через текст на экране телефона.


Видео: 720x264 (2.727:1), 25 fps, AVC MPEG4 (x264), Main@L4, ~1295 kbps avg, 0.273 bit/pixel
Аудио: 48 kHz, AC3 Dolby Digital, 2/0 (L,R) ch, ~192 kbps
Общее
Уникальный идентификатор : 239638972217649971954730812243215371948 (0xB448C988CC2DAF4315F74732FEE3CEAC)
Полное имя : H:\Текст (2019) WEBRip.1400MB.mkv
Формат : Matroska
Версия формата : Version 4 / Version 2
Размер файла : 1,37 Гбайт
Продолжительность : 2 ч. 11 м.
Общий поток : 1490 Кбит/сек
Дата кодирования : UTC 2019-11-30T12:29:52Z
Программа кодирования : HandBrake 1.1.2 2018090500
Библиотека кодирования : Lavf57.7.2

Видео
Идентификатор : 1
Формат : AVC
Формат/Информация : Advanced Video Codec
Профиль формата : Main@L4
Настройки формата : CABAC / 5 Ref Frames
Параметр CABAC формата : Да
Параметр RefFrames формата : 5 кадров
Идентификатор кодека : V_MPEG4/ISO/AVC
Продолжительность : 2 ч. 11 м.
Битрейт : 1295 Кбит/сек
Ширина : 720 пикселей
Высота : 264 пикселя
Соотношение сторон : 2,727
Режим частоты кадров : Постоянный
Частота кадров : 25,000 кадров/сек
Цветовое пространство : YUV
Субдискретизация насыщенности : 4:2:0
Битовая глубина : 8 бит
Тип развёртки : Прогрессивная
Бит/(Пиксели*Кадры) : 0.273
Размер потока : 1,16 Гбайт (85%)
Библиотека кодирования : x264 core 155 r2901 7d0ff22
Настройки программы : cabac=1 / ref=5 / deblock=1:0:0 / analyse=0x1:0x111 / me=hex / subme=8 / psy=1 / psy_rd=1.00:0.00 / mixed_ref=1 / me_range=16 / chroma_me=1 / trellis=2 / 8x8dct=0 / cqm=0 / deadzone=21,11 / fast_pskip=1 / chroma_qp_offset=-2 / threads=8 / lookahead_threads=1 / sliced_threads=0 / nr=0 / decimate=1 / interlaced=0 / bluray_compat=0 / constrained_intra=0 / bframes=3 / b_pyramid=2 / b_adapt=1 / b_bias=0 / direct=3 / weightb=1 / open_gop=0 / weightp=2 / keyint=250 / keyint_min=25 / scenecut=40 / intra_refresh=0 / rc_lookahead=50 / rc=2pass / mbtree=1 / bitrate=1295 / ratetol=1.0 / qcomp=0.60 / qpmin=0 / qpmax=69 / qpstep=4 / cplxblur=20.0 / qblur=0.5 / vbv_maxrate=20000 / vbv_bufsize=25000 / nal_hrd=none / filler=0 / ip_ratio=1.40 / aq=1:1.00
Default : Да
Forced : Нет
Цветовой диапазон : Limited
Основные цвета : BT.709
Характеристики трансфера : BT.709
Коэффициенты матрицы : BT.709

Аудио
Идентификатор : 2
Формат : AC-3
Формат/Информация : Audio Coding 3
Идентификатор кодека : A_AC3
Продолжительность : 2 ч. 11 м.
Вид битрейта : Постоянный
Битрейт : 192 Кбит/сек
Каналы : 2 канала
Расположение каналов : Front: L R
Частота : 48,0 КГц
Частота кадров : 31,250 кадров/сек (1536 SPF)
Битовая глубина : 16 бит
Метод сжатия : С потерями
Размер потока : 181 Мбайт (13%)
Заголовок : Stereo
Язык : English
ServiceKind/String : Complete Main
Default : Да
Forced : Нет













   Похожие торренты   Торрент   Размер 
В этой теме нет новых непрочитанных сообщений. Текст (Клим Шипенко) [2019, Триллер, драма, WEBRip]

1525 | 84

1.46 ГБ

В этой теме нет новых непрочитанных сообщений. Текст (Клим Шипенко) [2019, Триллер, драма, WEBRip 720р]

174 | 8

1.81 ГБ

В этой теме нет новых непрочитанных сообщений. Тест на беременность (2 сезон 1-8 серии из 16) (Клим Шипенко, Олег Асадулин, Антон Сиверс) [2019, мелодрама, HDTVRip-AVC]

0 | 0

5.79 ГБ

В этой теме нет новых непрочитанных сообщений. Тест на беременность (2 сезон 1-8 серии из 16) (Клим Шипенко, Олег Асадулин, Антон Сиверс) [2019, мелодрама, SATRip-AVC]

0 | 0

4.47 ГБ

В этой теме нет новых непрочитанных сообщений. Тест на беременность (2 сезон 1-4 серии из 16) (Клим Шипенко, Олег Асадулин, Антон Сиверс) [2019, мелодрама, SATRip-AVC]

0 | 0

2.26 ГБ

В этой теме нет новых непрочитанных сообщений. Тест на беременность (2 сезон 1-6 серии из 16) (Клим Шипенко, Олег Асадулин, Антон Сиверс) [2019, мелодрама, HDTVRip-AVC]

13 | 9

4.35 ГБ

В этой теме нет новых непрочитанных сообщений. Тест на беременность (2 сезон 1-2 серии из 16) (Клим Шипенко, Олег Асадулин, Антон Сиверс) [2019, мелодрама, SATRip-AVC]

75 | 2

1.13 ГБ




Вы не можете начинать темы
Вы не можете отвечать на сообщения
Вы не можете редактировать свои сообщения
Вы не можете удалять свои сообщения
Вы не можете добавлять вложения

Перейти:  
 Вход
ppkBB3cker v.2 © 2008-2014 @ PPK
[ Time : 0.028s | 19 Queries | GZIP : Off ]

cron