img image001 image001 image001 image001 image001 image001 image001 image001 image001 image001 image001 image001 image001 image001 image001

Planets Sun Sun Sun
Статистика раздачи
Автор: Снежана | Размер: 2.35 ГБ | Добавлен: 02 дек 2019
Раздают: 23    Качают: 4
Скачать торрент
Скачать торрент
Описание торрента

СообщениеДобавлено: 02 дек 2019 

Без колебаний (1-4 серии из 4)

Формат: WEB-DLRip-AVC, MKV, H.264, AC3
Страна: Украина
Перевод: не требуется
Режиссер: Анатолий Григорьев
Жанр: мелодрама
Продолжительность: 4 х ~ 00:47:00
Год выпуска: 2019

В ролях: Алина Сергеева, Вячеслав Довженко, Эльдар Калимулин, Дмитрий Чернов (II), Ольга Морозова, Олеся Островская, Даниил Мирешкин, Ирина Гришак, Константин Корецкий, Николай Боклан, Александр Ганноченко, Екатерина Шоломицкая, Игорь Рубашкин, Сергей Бережко, Владимир Гончаров (III), Евгений Григоренко, Сергей Дзялик, Владислав Демиденко, Елена Дудич, Сергей Калюка, Валентин Касьян, Владимир Кузнецов (IV), Ю. Куцак, Сергей Мельник, Тамара Морозова, Кира Подольская, Артём Позняк, Элина Тимкина, П. Тимкина, Любовь Тищенко (II), Остап Халавко, Захар Шадрин, Демьян Шиян, Владимир Шпудейко, Анатолий Пидгородецкий

Описание: Ради сына Дина бросила работу в школе – зарплаты учительницы не хватало на лекарства сыну. Женщина убирает квартиры состоятельных людей, в частности – своей бывшей одноклассницы и соседки, а ныне бизнесвумен Тамары. Дина знает, что сын не проживет и года без операции, ей срочно нужно найти деньги. Неожиданно Тамара, которая не давала ни копейки своим родным, предлагает Дине пять тысяч долларов. Дина счастлива – сын будет спасен. Но тот отказывается брать деньги Тамары – уверен, что мать из-за него унизилась перед богатой соседкой. Сын заявляет, что не ляжет на операцию и убегает... Соседку Тамару находят убитой – полицию вызвал аноним. Под подозрение попадает Дина, которая убирала в квартире и которой требовались деньги на операцию сына.

Рейтинг и доп. информация:


Видео: 1024x576, (16:9), 25 fps, AVC MPEG-4 (x264), ~ 1600 kbps , 0.109 bit/pixel
Аудио: 48 kHz, АС3, 2/0 (L,R), ~192.00 kbps avg
Общее
Уникальный идентификатор : 219946519587623800580445202567935900152 (0xA57828A8AC7527C2A0273C3DEC7939F8)
Полное имя : C:\Без колебаний.(2019).WEB-DLRip.(AVC).Files-x\01.Без колебаний.(2019).WEB-DLRip.(AVC).by.Серый1779.Files-x.mkv
Формат : Matroska
Версия формата : Version 2
Размер файла : 603 Мбайт
Продолжительность : 47 м. 2 с.
Общий поток : 1793 Кбит/сек
Дата кодирования : UTC 2019-12-01 06:22:36
Программа кодирования : mkvmerge v7.8.0 (''River Man'') 32bit built on Apr 3 2015 12:11:22
Библиотека кодирования : libebml v1.3.1 + libmatroska v1.4.2

Видео
Идентификатор : 1
Формат : AVC
Формат/Информация : Advanced Video Codec
Профиль формата :
Настройки формата : CABAC / 9 Ref Frames
Параметр CABAC формата : Да
Параметр RefFrames формата : 9 кадров
Идентификатор кодека : V_MPEG4/ISO/AVC
Продолжительность : 47 м. 2 с.
Битрейт : 1600 Кбит/сек
Ширина : 1024 пикселя
Высота : 576 пикселей
Соотношение сторон : 16:9
Режим частоты кадров : Постоянный
Частота кадров : 25,000 кадров/сек
Цветовое пространство : YUV
Субдискретизация насыщенности : 4:2:0
Битовая глубина : 8 бит
Тип развёртки : Прогрессивная
Бит/(Пиксели*Кадры) : 0.109
Размер потока : 527 Мбайт (87%)
Библиотека кодирования : x264 core 146 r2538 121396c
Настройки программы : cabac=1 / ref=9 / deblock=1:-2:-1 / analyse=0x3:0x133 / me=umh / subme=9 / psy=1 / psy_rd=1.00:0.15 / mixed_ref=1 / me_range=32 / chroma_me=1 / trellis=2 / 8x8dct=1 / cqm=0 / deadzone=21,11 / fast_pskip=0 / chroma_qp_offset=-3 / threads=18 / lookahead_threads=3 / sliced_threads=0 / nr=0 / decimate=1 / interlaced=0 / bluray_compat=0 / constrained_intra=0 / bframes=9 / b_pyramid=2 / b_adapt=2 / b_bias=0 / direct=1 / weightb=1 / open_gop=0 / weightp=2 / keyint=250 / keyint_min=25 / scenecut=40 / intra_refresh=0 / rc=2pass / mbtree=0 / bitrate=1600 / ratetol=1.0 / qcomp=0.60 / qpmin=0 / qpmax=69 / qpstep=4 / cplxblur=20.0 / qblur=0.5 / ip_ratio=1.40 / pb_ratio=1.30 / aq=2:1.00
Default : Да
Forced : Нет
Цветовой диапазон : Limited
Основные цвета : BT.709
Характеристики трансфера : BT.709
Коэффициенты матрицы : BT.709

Аудио
Идентификатор : 2
Формат : AC-3
Формат/Информация : Audio Coding 3
Коммерческое название : Dolby Digital
Идентификатор кодека : A_AC3
Продолжительность : 47 м. 2 с.
Вид битрейта : Постоянный
Битрейт : 192 Кбит/сек
Каналы : 2 канала
ChannelLayout : L R
Частота : 48,0 КГц
Частота кадров : 31,250 кадров/сек (1536 SPF)
Метод сжатия : С потерями
Размер потока : 64,6 Мбайт (11%)
ServiceKind/String : Complete Main
Default : Да
Forced : Нет








   Похожие торренты   Торрент   Размер 
В этой теме нет новых непрочитанных сообщений. Без колебаний (1-4 серии из 4) (Анатолий Григорьев) [2019, мелодрама, WEB-DLRip]

55 | 6

2.35 ГБ

В этой теме нет новых непрочитанных сообщений. Тайная любовь (1-16 серии из 16) (Анатолий Григорьев) [2019, мелодрама, WEB-DLRip-AVC]

12 | 3

9 ГБ

В этой теме нет новых непрочитанных сообщений. Тайная любовь (1-16 серии из 16) (Анатолий Григорьев ) [2018, Мелодрама, WEB-DLRip]

35 | 9

9.2 ГБ

В этой теме нет новых непрочитанных сообщений. Тайная любовь (1-16 серии из 16) (Анатолий Григорьев ) [2018, Мелодрама, WEB-DLRip 1080р]

8 | 8

25.61 ГБ

В этой теме нет новых непрочитанных сообщений. Тайная любовь (1-16 серии из 16) (Анатолий Григорьев ) [2018, Мелодрама, WEB-DLRip 720р]

0 | 0

10.86 ГБ

В этой теме нет новых непрочитанных сообщений. Садовница (1-4 серии из 4) (Александр Будённый) [2019, мелодрама, WEB-DLRip-AVC]

5 | 0

2.38 ГБ

В этой теме нет новых непрочитанных сообщений. Тайсон (1-4 серии из 4) (Александр Итыгилов мл.) [2019, криминал, мелодрама, WEB-DLRip-AVC]

46 | 2

2.3 ГБ




Вы не можете начинать темы
Вы не можете отвечать на сообщения
Вы не можете редактировать свои сообщения
Вы не можете удалять свои сообщения
Вы не можете добавлять вложения

Перейти:  
 Вход
ppkBB3cker v.2 © 2008-2014 @ PPK
[ Time : 0.025s | 16 Queries | GZIP : Off ]

cron