img image001 image001 image001 image001 image001 image001 image001 image001 image001 image001 image001 image001 image001 image001 image001

Planets Sun Sun Sun
Статистика раздачи
Автор: Снежана | Размер: 1.81 ГБ | Добавлен: 02 дек 2019
Раздают: 255    Качают: 9
Скачать торрент
Скачать торрент
Описание торрента

СообщениеДобавлено: 02 дек 2019 

Текст

Формат: HDRip, MKV, H.264, AC3
Режиссер: Клим Шипенко
Жанр: Триллер, драма
Продолжительность: 02:11:30
Год выпуска: 2019
В ролях: Александр Петров (II), Кристина Асмус, Иван Янковский, Софья Озерова, Максим Виноградов, Виталий Хаев, Дмитрий Глуховский, Кирилл Нагиев, Елена Финогеева
Описание:
Главный герой — 27-летний Илья Горюнов, семь лет отсидевший в тюрьме по ложному обвинению в распространении наркотиков. Когда Илья выходит на свободу, он понимает, что прежняя жизнь, по которой он тосковал, разрушена, и вернуться к ней он больше не сможет. Хотя он не собирался мстить человеку, который отправил его в тюрьму, другого выхода теперь нет. Встретившись лицом к лицу со своим обидчиком, Илья совершает необдуманный поступок, после которого главный герой получает доступ к смартфону Петра, а с ним и к жизни молодого человека — его фотографиям и видео, перепискам с родителями и девушкой Ниной, к странным, полным недомолвок и угроз переговорам с коллегами. На время Илья становится для всех Петром — через текст на экране телефона.



Видео: 1280x720 (16:9), 25.00 fps, AVC H264, ~1800 kbps avg, ~0.078 bit/pixel
Аудио: 48 kHz, AC3, 2/0 (L,R) ch, ~192.00 kbps avg

Доп. информация:
Без реклпмы

Общее
Уникальный идентификатор : 194226297388175102632029042858587995886 (0x921E9FCC67E1335AA38ED72857063EEE)
Полное имя : F:\Tekst.2019.WEBRip.720p.mkv
Формат : Matroska
Версия формата : Version 4 / Version 2
Размер файла : 1,81 Гбайт
Продолжительность : 2 ч. 11 м.
Общий поток : 1969 Кбит/сек
Дата кодирования : UTC 2019-12-01 19:19:26
Программа кодирования : mkvmerge v9.6.0 (''Slave To Your Mind'') 64bit
Библиотека кодирования : libebml v1.3.4 + libmatroska v1.4.5
DURATION : 02:11:30.080000000
NUMBER_OF_FRAMES : 246565
NUMBER_OF_BYTES : 189361920
_STATISTICS_WRITING_APP : mkvmerge v9.6.0 (''Slave To Your Mind'') 64bit
_STATISTICS_WRITING_DATE_UTC : 2019-12-01 19:19:26
_STATISTICS_TAGS : BPS DURATION NUMBER_OF_FRAMES NUMBER_OF_BYTES

Видео
Идентификатор : 1
Формат : AVC
Формат/Информация : Advanced Video Codec
Профиль формата :
Параметр CABAC формата : Да
Параметр ReFrames формата : 4 кадра
Идентификатор кодека : V_MPEG4/ISO/AVC
Продолжительность : 2 ч. 11 м.
Битрейт : 1800 Кбит/сек
Ширина : 1280 пикселей
Высота : 720 пикселей
Соотношение сторон : 16:9
Режим частоты кадров : Постоянный
Частота кадров : 25,000 кадров/сек
Цветовое пространство : YUV
Субдискретизация насыщенности : 4:2:0
Битовая глубина : 8 бит
Тип развёртки : Прогрессивная
Бит/(Пиксели*Кадры) : 0.078
Размер потока : 1,60 Гбайт (88%)
Библиотека кодирования : x264 core 142 r2495 6a301b6
Настройки программы : cabac=1 / ref=3 / deblock=1:0:0 / analyse=0x3:0x113 / me=hex / subme=7 / psy=1 / psy_rd=1.00:0.00 / mixed_ref=1 / me_range=16 / chroma_me=1 / trellis=1 / 8x8dct=1 / cqm=0 / deadzone=21,11 / fast_pskip=1 / chroma_qp_offset=-2 / threads=4 / lookahead_threads=1 / sliced_threads=0 / nr=0 / decimate=1 / interlaced=0 / bluray_compat=0 / constrained_intra=0 / bframes=3 / b_pyramid=2 / b_adapt=1 / b_bias=0 / direct=1 / weightb=1 / open_gop=0 / weightp=2 / keyint=250 / keyint_min=25 / scenecut=40 / intra_refresh=0 / rc_lookahead=40 / rc=cbr / mbtree=1 / bitrate=1800 / ratetol=1.0 / qcomp=0.60 / qpmin=0 / qpmax=69 / qpstep=4 / vbv_maxrate=1800 / vbv_bufsize=8400 / nal_hrd=none / filler=0 / ip_ratio=1.40 / aq=1:1.00
Default : Да
Forced : Нет
Цветовой диапазон : Limited
Основные цвета : BT.709
Характеристики трансфера : BT.709
Коэффициенты матрицы : BT.709

Аудио
Идентификатор : 2
Формат : AC-3
Формат/Информация : Audio Coding 3
Расширение режима : CM (complete main)
Параметр Endianness формата : Big
Идентификатор кодека : A_AC3
Продолжительность : 2 ч. 11 м.
Вид битрейта : Постоянный
Битрейт : 192 Кбит/сек
Каналы : 2 канала
Расположение каналов : Front: L R
Частота : 48,0 КГц
Метод сжатия : С потерями
Задержка видео : -43 мс.
Размер потока : 181 Мбайт (10%)
Default : Да
Forced : Нет













   Похожие торренты   Торрент   Размер 
В этой теме нет новых непрочитанных сообщений. Текст (Клим Шипенко) [2019, Триллер, драма, WEBRip]

2261 | 109

1.46 ГБ

В этой теме нет новых непрочитанных сообщений. Текст (Клим Шипенко) [2019, драма, триллер, WEBRip-AVC]

135 | 4

1.37 ГБ

В этой теме нет новых непрочитанных сообщений. Тест на беременность (2 сезон 1-8 серии из 16) (Клим Шипенко, Олег Асадулин, Антон Сиверс) [2019, мелодрама, HDTVRip]

93 | 54

4.76 ГБ

В этой теме нет новых непрочитанных сообщений. Тест на беременность (2 сезон 1-6 серии из 16) (Клим Шипенко, Олег Асадулин, Антон Сиверс) [2019, мелодрама, HDTVRip]

23 | 17

3.57 ГБ

В этой теме нет новых непрочитанных сообщений. Тест на беременность (2 сезон 1-8 серии из 16) (Клим Шипенко, Олег Асадулин, Антон Сиверс) [2019, мелодрама, SATRip]

160 | 83

4.69 ГБ

В этой теме нет новых непрочитанных сообщений. Тест на беременность (2 сезон 1-4 серии из 16) (Клим Шипенко, Олег Асадулин, Антон Сиверс) [2019, мелодрама, HDTVRip]

16 | 6

2.4 ГБ

В этой теме нет новых непрочитанных сообщений. Тест на беременность (2 сезон 1-4 серии из 16) (Клим Шипенко, Олег Асадулин, Антон Сиверс) [2019, мелодрама, SATRip]

24 | 4

2.34 ГБ




Вы не можете начинать темы
Вы не можете отвечать на сообщения
Вы не можете редактировать свои сообщения
Вы не можете удалять свои сообщения
Вы не можете добавлять вложения

Перейти:  
 Вход
ppkBB3cker v.2 © 2008-2014 @ PPK
[ Time : 0.025s | 17 Queries | GZIP : Off ]

cron