img image001 image001 image001 image001 image001 image001 image001 image001 image001 image001 image001 image001 image001 image001 image001

Planets Sun Sun Sun
Статистика раздачи
Автор: Снежана | Размер: 1.61 ГБ | Добавлен: 13 янв 2020
Раздают: 103    Качают: 9
Скачать торрент
Скачать торрент
Описание торрента

СообщениеДобавлено: 13 янв 2020 

Невиновен

Формат: WEB-DL 720p, MKV, H.264, AC3
Режиссер: Андзор Емкуж
Жанр: драма, боевик
Продолжительность: 01:17:56
Год выпуска: 2019

В ролях: Ахмед Хамурзов, Тимур Кетенчиев, Жанна Тхашугоева, Кантемир Шипшев, Татьяна Дрожжина, Артур Проскурин, Замир Дышеков, Каншоуби Хашев, Аскер Налоев, Маржана Нехай, Заур Карданов, Николай Куцегреев, Азрет Мамижев, Сергей Еремеев (II), Астемир Подколзин, Артур Асатурян, Евгений Сухомлинов, Роман Крюков, Талия Талишевская, Сергей Савлук, Айнди Халуев, Ахияд Хамурзов, Павел Москаль, Сергей Вдовенко, Амина Замаева, Аскарбий Хатхакумов, Эдуард Битиров, Валентин Камергоев, Аскер Кармонов, Станислав Ефремов, Зарина Хортиева, Михаил Чернышов (II), Юлия Суслова, Владимир Катков, Аспижан Эристаева, Алибек Джашеев, Леона Темиржанова, Динур Адзинов, Аминат Хуажева, Борис Хадзегов, Наталья Шаталова, Рустам Бозиев, Дмитрий Филлипов, Артур Тохов, Расул Аккаев, Жараш Аккаев, Алан Габоев, Фатима Хавпачева, Ирина Кузнецова, Тимур Шидгинов, Геннадий Астапов

Описание: Айтеч, бывший сотрудник спецслужб, вернувшись на родину на Кавказ, работает егерем в горах. Он уговаривает брата отправить племянника Азамата на учебу в Москву, где он сам учился в свое время, для получения достойного образования, но юношу убивают. Съедаемый чувством собственной вины за случившееся и движимый желанием всего рода - найти и наказать виновного, он отправляется в столицу... За что убили юношу? Как его убийца превратился из славного мальчика в жестокого зверя? Как должен поступить дядя: в соответствии с древними традициями кровной мести, по закону или по совести?..
«Выбор есть всегда»
Рейтинг и доп. информация:


Видео: 1280x532, (2,40:1), 24 fps, AVC MPEG-4 (x264), High@L4 ~ 2509 kbps , 0.154 bit/pixel
Аудио: 48 kHz, AC3 Dolby Digital, 3/2 (L,C,R,l,r) + LFE ch, ~384 kbps
Реклама, любого вида, отсутствует.

Общее
Уникальный идентификатор : 174095714880915644739092159379053096181 (0x82F99D73C6E50EFC9075B4783E5A2CF5)
Полное имя : C:\Nevinoven.2019.WEB-DL.(720p).ExKinoRay.mkv
Формат : Matroska
Версия формата : Version 2
Размер файла : 1,61 Гбайт
Продолжительность : 1 ч. 17 м.
Общий поток : 2952 Кбит/сек
Дата кодирования : UTC 2020-01-12 03:04:33
Программа кодирования : mkvmerge v5.8.0 (''No Sleep / Pillow'') built on Sep 2 2012 15:37:04
Библиотека кодирования : libebml v1.2.3 + libmatroska v1.3.0

Видео
Идентификатор : 1
Формат : AVC
Формат/Информация : Advanced Video Codec
Профиль формата : High@L4
Настройки формата : CABAC / 4 Ref Frames
Параметр CABAC формата : Да
Параметр RefFrames формата : 4 кадра
Идентификатор кодека : V_MPEG4/ISO/AVC
Продолжительность : 1 ч. 17 м.
Битрейт : 2509 Кбит/сек
Ширина : 1280 пикселей
Высота : 532 пикселя
Соотношение сторон : 2,40:1
Режим частоты кадров : Постоянный
Частота кадров : 24,000 кадра/сек
Цветовое пространство : YUV
Субдискретизация насыщенности : 4:2:0
Битовая глубина : 8 бит
Тип развёртки : Прогрессивная
Бит/(Пиксели*Кадры) : 0.154
Размер потока : 1,37 Гбайт (85%)
Язык : Russian
Default : Да
Forced : Нет

Аудио
Идентификатор : 2
Формат : AC-3
Формат/Информация : Audio Coding 3
Коммерческое название : Dolby Digital
Идентификатор кодека : A_AC3
Продолжительность : 1 ч. 17 м.
Вид битрейта : Постоянный
Битрейт : 384 Кбит/сек
Каналы : 6 каналов
ChannelLayout : L R C LFE Ls Rs
Частота : 48,0 КГц
Частота кадров : 31,250 кадров/сек (1536 SPF)
Метод сжатия : С потерями
Размер потока : 214 Мбайт (13%)
Язык : Russian
ServiceKind/String : Complete Main
Default : Да
Forced : Нет






   Похожие торренты   Торрент   Размер 
В этой теме нет новых непрочитанных сообщений. Невиновен (Андзор Емкуж) [2019, драма, боевик, WEB-DLRip] / Драмы

29 | 0

744.94 МБ

В этой теме нет новых непрочитанных сообщений. Невиновен (Андзор Емкуж) [2019, драма, боевик, WEB-DLRip] / Драмы

250 | 28

1.37 ГБ

В этой теме нет новых непрочитанных сообщений. Троица (Гэ Ян) [2019, Драма, WEB-DLRip] / Драмы

30 | 0

1.36 ГБ

В этой теме нет новых непрочитанных сообщений. Кровь (Артём Темников) [2019, Драма, WEB-DLRip] / Драмы

31 | 2

1.46 ГБ

В этой теме нет новых непрочитанных сообщений. Дылда (Кантемир Балагов) [2019, драма, WEB-DLRip] / Драмы

6 | 0

1.45 ГБ

В этой теме нет новых непрочитанных сообщений. Дылда (Кантемир Балагов) [2019, драма, WEB-DLRip] / Драмы

57 | 1

2.18 ГБ

В этой теме нет новых непрочитанных сообщений. Дылда (Кантемир Балагов) [2019, драма, WEB-DLRip-AVC] / Драмы

26 | 1

2.76 ГБ




Вы не можете начинать темы
Вы не можете отвечать на сообщения
Вы не можете редактировать свои сообщения
Вы не можете удалять свои сообщения
Вы не можете добавлять вложения

Перейти:  
 Вход
ppkBB3cker v.2 © 2008-2014 @ PPK
[ Time : 0.032s | 16 Queries | GZIP : Off ]

cron