img image001 image001 image001 image001 image001 image001 image001 image001 image001 image001 image001 image001 image001 image001 image001

Planets Sun Sun Sun
Статистика раздачи
Автор: Снежана | Размер: 5.86 ГБ | Добавлен: 14 янв 2020
Раздают: 8    Качают: 0
Скачать торрент
Скачать торрент
Описание торрента

СообщениеДобавлено: 14 янв 2020 

Музыка моей души (1-2 серии из 2)

Формат: WEB-DL 720p, MKV, H.264, AC3
Режиссер: Максим Кубринский
Жанр: драма, мелодрама
Продолжительность: 2 х 01:30:00
Год выпуска: 2018

В ролях: катерина Астахова, Тимофей Каратаев, Рэй Буртяк, Владислава Ермолаева, Елена Чарквиани, Наталья Гриншпун, Ирина Лосева, Вадим Цаллати, Артур Бичахчян, Евгения Каверау, Александр Миронов (III), Василий Мичков, Надежда Иванко, Евгений Казанцев, Владимир Яковлев, Татьяна Васильева, Олег Филипчик, Елена Доронина, Галина Иванова, Виктор Рябов, Марина Кондратьева, Дмитрий Чуфистов, Александр Аблязов, Артём Кобзев, Сергей Маркелов

Описание: Жизнь Анастасии, студентки третьего курса музыкального училища, рушится в один миг, когда ее жених, в результате рокового стечения обстоятельств, попадает за решетку по обвинению в убийстве. Чтобы спасти его, девушка влезает в огромные долги, однако освободить любимого не удается. Настя обязуется ждать. Но десять лет разлуки – целая жизнь, полная трудностей, разочарований и слез. Жизнь, которой плевать, что ты одна, да еще и с маленьким ребенком на руках.

Рейтинг и доп. информация:


Видео: 1280x720, (16:9), 25 fps, AVC MPEG-4 (x264), ~ 4352 kbps , 0.189 bit/pixel
Аудио: 48 kHz, AC3, 2/0 (L,R) ch, ~192 kbps
Общее
Уникальный идентификатор : 16366476494418567735471999024186572457 (0xC5011976713E14026FFDA0DD974BEA9)
Полное имя : C:\Myзыкa мoeй дyши.(2018).WEB-DL (720p).by.Nicodem.Files-x\01.Myзыкa мoeй дyши.(2018).WEB-DL (720p).by.Nicodem.Files-x.mkv
Формат : Matroska
Версия формата : Version 4
Размер файла : 2,92 Гбайт
Продолжительность : 1 ч. 30 м.
Общий поток : 4637 Кбит/сек
Программа кодирования : Lavf56.36.100
Библиотека кодирования : Lavf56.36.100

Видео
Идентификатор : 1
Формат : AVC
Формат/Информация : Advanced Video Codec
Профиль формата :
Настройки формата : CABAC / 2 Ref Frames
Параметр CABAC формата : Да
Параметр RefFrames формата : 2 кадра
Идентификатор кодека : V_MPEG4/ISO/AVC
Продолжительность : 1 ч. 30 м.
Битрейт : 4352 Кбит/сек
Ширина : 1280 пикселей
Высота : 720 пикселей
Соотношение сторон : 16:9
Режим частоты кадров : Постоянный
Частота кадров : 25,000 кадров/сек
Цветовое пространство : YUV
Субдискретизация насыщенности : 4:2:0
Битовая глубина : 8 бит
Тип развёртки : Прогрессивная
Бит/(Пиксели*Кадры) : 0.189
Размер потока : 2,74 Гбайт (94%)
Default : Да
Forced : Нет

Аудио
Идентификатор : 2
Формат : AC-3
Формат/Информация : Audio Coding 3
Коммерческое название : Dolby Digital
Идентификатор кодека : A_AC3
Продолжительность : 1 ч. 30 м.
Вид битрейта : Постоянный
Битрейт : 192 Кбит/сек
Каналы : 2 канала
ChannelLayout : L R
Частота : 44,1 КГц
Частота кадров : 28,711 кадров/сек (1536 SPF)
Метод сжатия : С потерями
Размер потока : 124 Мбайт (4%)
Язык : unknown
ServiceKind/String : Complete Main
Default : Да
Forced : Нет








   Похожие торренты   Торрент   Размер 
В этой теме нет новых непрочитанных сообщений. Музыка моей души (1-2 серии из 2) (Максим Кубринский) [2018, драма, мелодрама, WEB-DLRip-AVC]

5 | 0

2.27 ГБ

В этой теме нет новых непрочитанных сообщений. Музыка моей души (1-2 серии из 2) (Максим Кубринский) [2018, мелодрама, WEB-DLRip]

13 | 2

2.74 ГБ

В этой теме нет новых непрочитанных сообщений. Бельканто / Bel Canto (Пол Вайц) [2018, Tриллер, драма, мелодрама, музыка, BDRip-AVC] DUB / Драмы

7 | 3

1.86 ГБ

В этой теме нет новых непрочитанных сообщений. Навсегда моя девушка / Forever My Girl (Бетани Эштон) [2018, драма, мелодрама, музыка, BDRip] MVO / Драмы

19 | 1

1.46 ГБ

В этой теме нет новых непрочитанных сообщений. Навсегда моя девушка / Forever My Girl (Бетани Эштон) [2018, драма, мелодрама, музыка, BDRip] MVO / Драмы

11 | 2

747.31 МБ

В этой теме нет новых непрочитанных сообщений. Звезда родилась / A Star Is Born (Брэдли Купер) [2018, драма, мелодрама, музыка, BDRip] DUB / Драмы

51 | 8

2.92 ГБ

В этой теме нет новых непрочитанных сообщений. Эра Стрельца (1-3 сезон 1-36 серии из 36) (Максим Кубринский) [2007-2008, драма, криминал, детектив, экранизация, WEBRip-AVC]

6 | 2

20.07 ГБ




Вы не можете начинать темы
Вы не можете отвечать на сообщения
Вы не можете редактировать свои сообщения
Вы не можете удалять свои сообщения
Вы не можете добавлять вложения

Перейти:  
 Вход
ppkBB3cker v.2 © 2008-2014 @ PPK
[ Time : 0.034s | 17 Queries | GZIP : Off ]

cron