img image001 image001 image001 image001 image001 image001 image001 image001 image001 image001 image001 image001 image001 image001 image001

Planets Sun Sun Sun

COVID-19 - Последняя информация о коронавирусе на сайте Минздрава


Статистика раздачи
Автор: Снежана | Размер: 1.46 ГБ | Добавлен: 12 фев 2020
Раздают: 2    Качают: 0


Скачать торрент
Скачать торрент
Описание торрента

СообщениеДобавлено: 12 фев 2020 

Девятая

Формат: WEB-DLRip-AVC, MKV, H.264, AC3
Режиссер: Николай Хомерики
Жанр: Триллер, приключения, детектив, ужасы
Продолжительность: 01:34:45
Год выпуска: 2019
В ролях: Евгений Цыганов, Дэйзи Хэд, Дмитрий Лысенков, Юрий Колокольников, Джонатан Солвей, Евгений Ткачук, Игорь Черневич, Иван Решетняк, Мария Скуратова, Анна Христич
Описание:
Петербург конца XIX века охвачен массовым увлечением оккультными науками и эзотерикой. Британка-медиум Оливия Рид приезжает в столицу Российской империи с гастролями и собирает на своих публичных спиритических сеансах толпы людей. В это время в городе происходит серия ритуальных загадочных убийств. На улицах похищают девушек, их изувеченные тела находят в самых разных концах города. Расследованием занимаются молодой полицейский офицер Ростов и его помощник Ганин. С каждой новой жертвой дело становится все запутаннее. Подозрение приводит Ростова к Оливии, и он решает обратиться к ней в надежде, что ее подлинная или мнимая способность вызывать духов погибших может помочь выйти на след убийцы.



Видео: 972x408 (2.40:1), 25.000 fps AVC Н.264 ~1782 kbps avg, 0.180 bit/pixel
Аудио: 48 kHz, AC3 Dolby Digital, 3/2 (L,C,R,l,r) + LFE ch, ~384 kbps avg

Complete name : D:\Раздача\Девятая (2019) WEB-DLRip-AVC_ivanes.mkv
Format : Matroska
Format version : Version 2
File size : 1.46 GiB
Duration : 1 h 34 min
Overall bit rate : 2 209 kb/s
Movie name : Девятая (2019) WEB-DLRip-AVC_ivanes
Encoded date : UTC 2020-01-01 20:02:45
Writing application : mkvmerge v4.4.0 (''Die Wiederkehr'') сборка от Jan 3 2011 21:40:45
Writing library : libebml v1.0.0 + libmatroska v1.0.0
Cover : Yes
Attachments : cover.jpg

Video
ID : 1
Format : AVC
Format/Info : Advanced Video Codec
Format profile :
Format settings : CABAC / 10 Ref Frames
Format settings, CABAC : Yes
Format settings, Reference : 10 frames
Codec ID : V_MPEG4/ISO/AVC
Duration : 1 h 34 min
Bit rate : 1 782 kb/s
Width : 972 pixels
Height : 408 pixels
Display aspect ratio : 2.40:1
Frame rate mode : Constant
Frame rate : 25.000 FPS
Color space : YUV
Chroma subsampling : 4:2:0
Bit depth : 8 bits
Scan type : Progressive
Bits/(Pixel*Frame) : 0.180
Stream size : 1.18 GiB (81%)
Title : Rip by ivanes
Writing library : x264 core 158 r2988 7817004
Encoding settings : cabac=1 / ref=10 / deblock=1:-3:-3 / analyse=0x3:0x113 / me=umh / subme=10 / psy=1 / psy_rd=1.00:0.00 / mixed_ref=1 / me_range=32 / chroma_me=1 / trellis=2 / 8x8dct=1 / cqm=0 / deadzone=21,11 / fast_pskip=0 / chroma_qp_offset=-2 / threads=12 / lookahead_threads=3 / sliced_threads=0 / nr=0 / decimate=1 / interlaced=0 / bluray_compat=0 / constrained_intra=0 / bframes=11 / b_pyramid=2 / b_adapt=2 / b_bias=0 / direct=1 / weightb=1 / open_gop=0 / weightp=2 / keyint=250 / keyint_min=25 / scenecut=40 / intra_refresh=0 / rc_lookahead=60 / rc=crf / mbtree=0 / crf=17.6 / qcomp=0.60 / qpmin=0 / qpmax=69 / qpstep=4 / vbv_maxrate=50000 / vbv_bufsize=62500 / crf_max=0.0 / nal_hrd=none / filler=0 / ip_ratio=1.40 / pb_ratio=1.30 / aq=1:1.00
Default : Yes
Forced : No
Statistics Tags Issue : mkvmerge v29.0.0 (''Like It Or Not'') 64-bit 2020-01-01 20:02:21 / mkvmerge v4.4.0 (''Die Wiederkehr'') сборка от Jan 3 2011 21:40:45 2020-01-01 20:02:45
FromStats_BitRate : 1823530
FromStats_Duration : 01:34:45.160000000
FromStats_FrameCount : 142129
FromStats_StreamSize : 1295882878

Audio
ID : 2
Format : AC-3
Format/Info : Audio Coding 3
Commercial name : Dolby Digital
Codec ID : A_AC3
Duration : 1 h 34 min
Bit rate mode : Constant
Bit rate : 384 kb/s
Channel(s) : 6 channels
Channel layout : L R C LFE Ls Rs
Sampling rate : 48.0 kHz
Frame rate : 31.250 FPS (1536 SPF)
Compression mode : Lossy
Stream size : 260 MiB (17%)
Language : Russian
Service kind : Complete Main
Default : Yes
Forced : No









   Похожие торренты   Торрент   Размер 
В этой теме нет новых непрочитанных сообщений. Девятая (Николай Хомерики) [2019, Триллер, приключения, детектив, ужасы, WEB-DLRip]

548 | 5

1.37 ГБ

В этой теме нет новых непрочитанных сообщений. Девятая (Николай Хомерики) [2019, триллер, приключения, детектив, ужасы, WEB-DLRip]

26 | 0

745.17 МБ

В этой теме нет новых непрочитанных сообщений. Девятая (Николай Хомерики) [2019, Триллер, приключения, детектив, ужасы, WEBRip 720p] / Фантастика

11 | 0

1.91 ГБ

В этой теме нет новых непрочитанных сообщений. Девятая (Николай Хомерики) [2018, триллер, приключения, детектив, ужасы, WEB-DLRip-AVC]

34 | 1

1.45 ГБ

В этой теме нет новых непрочитанных сообщений. Тайны города ЭН (1-8 серии из 8) (Николай Хомерики) [2015, детектив, драма, WEB-DLRip-AVC]

24 | 4

4.33 ГБ

В этой теме нет новых непрочитанных сообщений. Холодная земля / Cold Ground (Фабьен Делейдж) [2017, ужасы, фантастика, триллер, детектив, WEB-DLRip-AVC] DVO

44 | 0

745.71 МБ

В этой теме нет новых непрочитанных сообщений. Тайны города ЭН (1-8 серии из 8) (Николай Хомерики) [2015, детектив, драма, WEB-DL 720p]

8 | 2

9.45 ГБ




Вы не можете начинать темы
Вы не можете отвечать на сообщения
Вы не можете редактировать свои сообщения
Вы не можете удалять свои сообщения
Вы не можете добавлять вложения

Перейти:  
Контактная информация: rstracker[пёсик]yandex.ru
 Вход
ppkBB3cker v.2 © 2008-2014 @ PPK
[ Time : 0.029s | 16 Queries | GZIP : Off ]

cron