img image001 image001 image001 image001 image001 image001 image001 image001 image001 image001 image001 image001 image001 image001 image001

Planets Sun Sun Sun
Статистика раздачи
Автор: Снежана | Размер: 1.24 ГБ | Добавлен: 13 фев 2020
Раздают: 126    Качают: 5
Скачать торрент
Скачать торрент
Описание торрента

СообщениеДобавлено: 13 фев 2020 

Полицейский с Рублевки. Новогодний беспредел 2

Формат: WEB-DLRip-AVC, MKV, H.264, AC3
Режиссер: Илья Куликов
Жанр: комедия, приключения
Продолжительность: 01:20:56
Год выпуска: 2019

В ролях: Сергей Бурунов, Роман Попов, Софья Каштанова, Рина Гришина, Светлана Суханова, Александр Дерепко, Сергей Штатнов, Ростислав Гулбис, Ирина Вилкова, Александра Бортич, Василий Шмаков, Кирилл Мелехов, Дмитрий Беседа, Юрий Брешин, Юлия Богатикова, Сергей Селин, Жорж Девдариани, Евгений Карташов, Иван Киренков, Алексей Соколков, Михаил Бондин, Олег Грисевич

Описание: Близится Новый год, и сотрудники отдела полиции Барвихи планируют праздновать его за городом в компании старых друзей и коллег. Но непредвиденные обстоятельства в лице преступников, ограбивших крупное ювелирное предприятие, ставят праздник под угрозу. Смогут ли рублёвские полицейские вернуть украденные драгоценные камни стоимостью в миллионы долларов и спасти Новый год до того, как часы пробьют полночь?
«Не один, не дома»

Рейтинг и доп. информация:


Видео: 1024х428, (2,40:1), 25 fps, AVC MPEG-4 (x264), ~ 2000 kbps , 0.183 bit/pixel
Аудио: 48 kHz, AC3, 2/0 (L,R) ch, ~192 kbps
Общее
Уникальный идентификатор : 241206004547952569027884482085302733987 (0xB57696317AA3C90683649F1B21D68CA3)
Полное имя : G:Politseyskiy.s.Rublovki.Novogodniy.bespredel-2.2019.WEB-DLRip.(AVC).ExKinoRay.mkv
Формат : Matroska
Версия формата : Version 2
Размер файла : 1,24 Гбайт
Продолжительность : 1 ч. 20 м.
Общий поток : 2192 Кбит/сек
Дата кодирования : UTC 2020-02-12 22:22:33
Программа кодирования : mkvmerge v7.8.0 (''River Man'') 32bit built on Apr 3 2015 12:11:22
Библиотека кодирования : libebml v1.3.1 + libmatroska v1.4.2

Видео
Идентификатор : 1
Формат : AVC
Формат/Информация : Advanced Video Codec
Профиль формата :
Настройки формата : CABAC / 10 Ref Frames
Параметр CABAC формата : Да
Параметр RefFrames формата : 10 кадров
Идентификатор кодека : V_MPEG4/ISO/AVC
Продолжительность : 1 ч. 20 м.
Битрейт : 2000 Кбит/сек
Ширина : 1024 пикселя
Высота : 428 пикселей
Соотношение сторон : 2,40:1
Режим частоты кадров : Постоянный
Частота кадров : 25,000 кадров/сек
Цветовое пространство : YUV
Субдискретизация насыщенности : 4:2:0
Битовая глубина : 8 бит
Тип развёртки : Прогрессивная
Бит/(Пиксели*Кадры) : 0.183
Размер потока : 1,11 Гбайт (89%)
Библиотека кодирования : x264 core 146 r2538 121396c
Настройки программы : cabac=1 / ref=10 / deblock=1:-3:-3 / analyse=0x3:0x113 / me=umh / subme=11 / psy=1 / psy_rd=1.00:0.20 / mixed_ref=1 / me_range=32 / chroma_me=1 / trellis=2 / 8x8dct=1 / cqm=0 / deadzone=21,11 / fast_pskip=1 / chroma_qp_offset=-3 / threads=24 / lookahead_threads=6 / sliced_threads=0 / nr=0 / decimate=0 / interlaced=0 / bluray_compat=0 / constrained_intra=0 / bframes=11 / b_pyramid=2 / b_adapt=2 / b_bias=0 / direct=3 / weightb=1 / open_gop=0 / weightp=2 / keyint=250 / keyint_min=25 / scenecut=40 / intra_refresh=0 / rc_lookahead=60 / rc=2pass / mbtree=1 / bitrate=2000 / ratetol=1.0 / qcomp=0.60 / qpmin=0 / qpmax=69 / qpstep=4 / cplxblur=20.0 / qblur=0.5 / vbv_maxrate=14000 / vbv_bufsize=14000 / nal_hrd=none / filler=0 / ip_ratio=1.40 / aq=3:1.40
Default : Да
Forced : Нет
Цветовой диапазон : Limited
Основные цвета : BT.709
Характеристики трансфера : BT.709
Коэффициенты матрицы : BT.709

Аудио
Идентификатор : 2
Формат : AC-3
Формат/Информация : Audio Coding 3
Идентификатор кодека : A_AC3
Продолжительность : 1 ч. 20 м.
Вид битрейта : Постоянный
Битрейт : 192 Кбит/сек
Каналы : 2 канала
Расположение каналов : Front: L R
Частота : 48,0 КГц
Частота кадров : 31,250 кадров/сек (1536 SPF)
Битовая глубина : 16 бит
Метод сжатия : С потерями
Размер потока : 111 Мбайт (9%)
Default : Да
Forced : Нет






   Похожие торренты   Торрент   Размер 
В этой теме нет новых непрочитанных сообщений. Полицейский с Рублевки. Новогодний беспредел 2 (Илья Куликов) [2019, комедия, приключения, WEB-DLRip]

1762 | 123

1.37 ГБ

В этой теме нет новых непрочитанных сообщений. Полицейский с Рублевки. Новогодний беспредел 2 (Илья Куликов) [2019, комедия, приключения, WEB-DLRip]

55 | 6

743.96 МБ

В этой теме нет новых непрочитанных сообщений. Полицейский с Рублевки. Новогодний беспредел 2 (Илья Куликов) [2019, комедия, приключения, WEB-DL 720p]

552 | 35

1.8 ГБ

В этой теме нет новых непрочитанных сообщений. Полицейский с Рублёвки. Новогодний беспредел (1-2 фильмы из 2 + фильм о фильме) (Илья Куликов) [2018-2019, комедия, криминал, WEB-DLRip]

42 | 10

3.47 ГБ

В этой теме нет новых непрочитанных сообщений. Полицейский с Рублёвки (5 сезон 1-8 серии из 8) Полицейская академия (Илья Куликов) [2019, комедия, WEB-DLRip-AVC]

69 | 10

2.39 ГБ

В этой теме нет новых непрочитанных сообщений. Полицейский с Рублевки (5 сезон: 1-2 серии из 8) Полицейская академия (Илья Куликов) [2019, комедия, криминал, WEBRip-AVC]

1 | 1

769.84 МБ

В этой теме нет новых непрочитанных сообщений. Полицейский с Рублевки (5 сезон: 1 серия из 8) Полицейская академия (Илья Куликов) [2019, комедия, криминал, WEBRip-AVC]

1 | 0

403.33 МБ




Вы не можете начинать темы
Вы не можете отвечать на сообщения
Вы не можете редактировать свои сообщения
Вы не можете удалять свои сообщения
Вы не можете добавлять вложения

Перейти:  
 Вход
ppkBB3cker v.2 © 2008-2014 @ PPK
[ Time : 0.014s | 17 Queries | GZIP : Off ]

cron