img image001 image001 image001 image001 image001 image001 image001 image001 image001 image001 image001 image001 image001 image001 image001

Planets Sun Sun Sun
Статистика раздачи
Автор: Снежана | Размер: 1.8 ГБ | Добавлен: 13 фев 2020
Раздают: 292    Качают: 6
Скачать торрент
Скачать торрент
Описание торрента

СообщениеДобавлено: 13 фев 2020 

Полицейский с Рублевки. Новогодний беспредел 2

Формат: WEB-DL 720p, MKV, H.264, AC3
Режиссер: Илья Куликов
Жанр: комедия, приключения
Продолжительность: 01:20:56
Год выпуска: 2019

В ролях: Сергей Бурунов, Роман Попов, Софья Каштанова, Рина Гришина, Светлана Суханова, Александр Дерепко, Сергей Штатнов, Ростислав Гулбис, Ирина Вилкова, Александра Бортич, Василий Шмаков, Кирилл Мелехов, Дмитрий Беседа, Юрий Брешин, Юлия Богатикова, Сергей Селин, Жорж Девдариани, Евгений Карташов, Иван Киренков, Алексей Соколков, Михаил Бондин, Олег Грисевич

Описание: Близится Новый год, и сотрудники отдела полиции Барвихи планируют праздновать его за городом в компании старых друзей и коллег. Но непредвиденные обстоятельства в лице преступников, ограбивших крупное ювелирное предприятие, ставят праздник под угрозу. Смогут ли рублёвские полицейские вернуть украденные драгоценные камни стоимостью в миллионы долларов и спасти Новый год до того, как часы пробьют полночь?
«Не один, не дома»

Рейтинг и доп. информация:


Видео: 1280х528, (2,40:1), 25 fps, AVC MPEG-4 (x264), ~ 3000 kbps , 0.173 bit/pixel
Аудио: 48 kHz, AC3, 2/0 (L,R) ch, ~192 kbps
Общее
Уникальный идентификатор : 241420180184004580812444756143602248336 (0xB59FD5DE0EA33901A6961028C6C5AA90)
Полное имя : C:\Politseyskiy.s.Rublovki.Novogodniy.bespredel-2.2019.WEB-DL.(720p).ExKinoRay.mkv
Формат : Matroska
Версия формата : Version 4
Размер файла : 1,80 Гбайт
Продолжительность : 1 ч. 20 м.
Режим общего битрейта : Переменный
Общий поток : 3179 Кбит/сек
Дата кодирования : UTC 2020-02-12 21:11:31
Программа кодирования : mkvmerge v6.9.1 (''Blue Panther'') 64bit built on Apr 18 2014 18:23:38
Библиотека кодирования : libebml v1.3.0 + libmatroska v1.4.1

Видео
Идентификатор : 1
Формат : AVC
Формат/Информация : Advanced Video Codec
Профиль формата :
Настройки формата : CABAC / 1 Ref Frames
Параметр CABAC формата : Да
Параметр RefFrames формата : 1 кадр
Параметр GOP формата : M=1, N=50
Идентификатор кодека : V_MPEG4/ISO/AVC
Продолжительность : 1 ч. 20 м.
Вид битрейта : Переменный
Битрейт : 2924 Кбит/сек
Максимальный битрейт : 3000 Кбит/сек
Ширина : 1280 пикселей
Высота : 528 пикселей
Соотношение сторон : 2,40:1
Режим частоты кадров : Постоянный
Частота кадров : 25,000 кадров/сек
Цветовое пространство : YUV
Субдискретизация насыщенности : 4:2:0
Битовая глубина : 8 бит
Тип развёртки : Прогрессивная
Бит/(Пиксели*Кадры) : 0.173
Размер потока : 1,65 Гбайт (92%)
Default : Да
Forced : Нет

Аудио
Идентификатор : 2
Формат : AC-3
Формат/Информация : Audio Coding 3
Коммерческое название : Dolby Digital
Идентификатор кодека : A_AC3
Продолжительность : 1 ч. 20 м.
Вид битрейта : Постоянный
Битрейт : 192 Кбит/сек
Каналы : 2 канала
ChannelLayout : L R
Частота : 48,0 КГц
Частота кадров : 31,250 кадров/сек (1536 SPF)
Метод сжатия : С потерями
Размер потока : 111 Мбайт (6%)
Язык : Russian
ServiceKind/String : Complete Main
Default : Да
Forced : Нет






   Похожие торренты   Торрент   Размер 
В этой теме нет новых непрочитанных сообщений. Полицейский с Рублевки. Новогодний беспредел 2 (Илья Куликов) [2019, комедия, приключения, WEB-DLRip]

1825 | 99

1.37 ГБ

В этой теме нет новых непрочитанных сообщений. Полицейский с Рублевки. Новогодний беспредел 2 (Илья Куликов) [2019, комедия, приключения, WEB-DLRip]

56 | 2

743.96 МБ

В этой теме нет новых непрочитанных сообщений. Полицейский с Рублевки. Новогодний беспредел 2 (Илья Куликов) [2019, комедия, приключения, WEB-DLRip-AVC]

44 | 2

1.24 ГБ

В этой теме нет новых непрочитанных сообщений. Полицейский с Рублёвки. Новогодний беспредел (1-2 фильмы из 2 + фильм о фильме) (Илья Куликов) [2018-2019, комедия, криминал, WEB-DLRip]

49 | 19

3.47 ГБ

В этой теме нет новых непрочитанных сообщений. Полицейский с Рублёвки (5 сезон 1-8 серии из 8) Полицейская академия (Илья Куликов) [2019, комедия, WEB-DLRip-AVC]

65 | 18

2.39 ГБ

В этой теме нет новых непрочитанных сообщений. Полицейский с Рублёвки (5 сезон 1-2 серии из 8) Полицейская академия (Илья Куликов) [2019, комедия, криминал, WEBRip 720p]

4 | 0

1.27 ГБ

В этой теме нет новых непрочитанных сообщений. Полицейский с Рублёвки (5 сезон 1- серии из 8) Полицейская академия (Илья Куликов) [2019, комедия, криминал, WEBRip 720p]

23 | 0

679.23 МБ




Вы не можете начинать темы
Вы не можете отвечать на сообщения
Вы не можете редактировать свои сообщения
Вы не можете удалять свои сообщения
Вы не можете добавлять вложения

Перейти:  
 Вход
ppkBB3cker v.2 © 2008-2014 @ PPK
[ Time : 0.022s | 19 Queries | GZIP : Off ]

cron