img image001 image001 image001 image001 image001 image001 image001 image001 image001 image001 image001 image001 image001 image001 image001

Planets Sun Sun Sun

COVID-19 - Последняя информация о коронавирусе на сайте Минздрава


Статистика раздачи
Автор: Снежана | Размер: 4.67 ГБ | Добавлен: 31 мар 2020
Раздают: 0    Качают: 0
Скачать торрент
Скачать торрент
Описание торрента

СообщениеДобавлено: 31 мар 2020 

Лабиринт (1-4 серии из 4)

Страна: Украина
Перевод: не требуется
Формат: WEB-DL 720p, MKV, H.264, AC3
Режиссер: Антон Гойда
Жанр: мелодрама
Продолжительность: 4 х 00:45:00
Год выпуска: 2020

В ролях: Александра Булычёва, Тарас Кузьмин, Прохор Дубравин, Елизавета Козлова, Алексей Сморигин, Валерия Березовская, Александр Заднепровский, Ксения Николаева, Даниил Каменский, Елена Узлюк, Людмила Загорская, Дарья Легейда, Руслан Коваль, Ирина Бондаренко, Галина Корнеева, Нина Набока, Сергей Кучера, Максим Девизоров, Кирилл Горолюк, Полина Фролова (II), Александр Третьяченко

Описание: Жизнь Алины Тихоновой – идеальная картинка. Успешный дизайнер, она замужем за известным адвокатом, растит двух прекрасных детей и даже дружит со свекровью. Алина, чье детство было далеко не безоблачным, твердо вознамерилась сделать все, чтобы ее собственные дети росли в идеальной семье. Она готова закрыть глаза на то, что ее муж, регулярно дарящий шикарные букеты, тиран и деспот, дочка отстранена и связана с плохой компанией, сын молча страдает, выполняя нелепые прихоти отца, а свекровь ее не уважает. Но Алина уверена – у всех свои недостатки, и она будет терпеть побои мужа, чтобы не повторить судьбу матери, которую она скрывает от собственных детей, потому что та не вписывается в идеальную картинку. Все заканчивается в тот день, когда муж поднимает руку на сына, чуть не убивает саму Алину, а дочь уходит из дома...

Рейтинг и доп. информация:


Видео: 1280х720, (16:9), 25 fps, AVC MPEG-4 (x264), ~ 3500 kbps , 0.152 bit/pixel
Аудио: 44,1 kHz, AC3, 2/0 (L,R) ch, ~192 kbps
Общее
Уникальный идентификатор : 279370755506891062104014987855232413800 (0xD22CD9B14D98473F8EF1DE789172B068)
Полное имя : C:\Лабиринт.(2020).WEB-DL (720p).by.Nicodem.Files-x\01.Лабиринт.(2020).WEB-DL (720p).by.Nicodem.Files-x.mkv
Формат : Matroska
Версия формата : Version 4
Размер файла : 1,17 Гбайт
Продолжительность : 45 м. 19 с.
Общий поток : 3684 Кбит/сек
Программа кодирования : Lavf56.36.100
Библиотека кодирования : Lavf56.36.100

Видео
Идентификатор : 1
Формат : AVC
Формат/Информация : Advanced Video Codec
Профиль формата :
Настройки формата : CABAC / 5 Ref Frames
Параметр CABAC формата : Да
Параметр RefFrames формата : 5 кадров
Идентификатор кодека : V_MPEG4/ISO/AVC
Продолжительность : 45 м. 19 с.
Битрейт : 3500 Кбит/сек
Ширина : 1280 пикселей
Высота : 720 пикселей
Соотношение сторон : 16:9
Режим частоты кадров : Постоянный
Частота кадров : 25,000 кадров/сек
Цветовое пространство : YUV
Субдискретизация насыщенности : 4:2:0
Битовая глубина : 8 бит
Тип развёртки : Прогрессивная
Бит/(Пиксели*Кадры) : 0.152
Размер потока : 1,08 Гбайт (93%)
Библиотека кодирования : x264 core 148
Настройки программы : cabac=1 / ref=5 / deblock=1:0:0 / analyse=0x3:0x113 / me=hex / subme=8 / psy=1 / psy_rd=1.00:0.00 / mixed_ref=1 / me_range=16 / chroma_me=1 / trellis=2 / 8x8dct=1 / cqm=0 / deadzone=21,11 / fast_pskip=1 / chroma_qp_offset=-2 / threads=22 / lookahead_threads=3 / sliced_threads=0 / nr=0 / decimate=1 / interlaced=0 / bluray_compat=0 / constrained_intra=0 / bframes=3 / b_pyramid=2 / b_adapt=1 / b_bias=0 / direct=3 / weightb=1 / open_gop=0 / weightp=2 / keyint=250 / keyint_min=25 / scenecut=0 / intra_refresh=0 / rc_lookahead=50 / rc=abr / mbtree=1 / bitrate=3500 / ratetol=1.0 / qcomp=0.60 / qpmin=0 / qpmax=69 / qpstep=4 / ip_ratio=1.40 / aq=1:1.00
Default : Да
Forced : Нет

Аудио
Идентификатор : 2
Формат : AC-3
Формат/Информация : Audio Coding 3
Коммерческое название : Dolby Digital
Идентификатор кодека : A_AC3
Продолжительность : 45 м. 19 с.
Вид битрейта : Постоянный
Битрейт : 192 Кбит/сек
Каналы : 2 канала
ChannelLayout : L R
Частота : 44,1 КГц
Частота кадров : 28,711 кадров/сек (1536 SPF)
Метод сжатия : С потерями
Задержка видео : -80 мс.
Размер потока : 62,2 Мбайт (5%)
Язык : unknown
ServiceKind/String : Complete Main
Default : Да
Forced : Нет













   Похожие торренты   Торрент   Размер 
В этой теме нет новых непрочитанных сообщений. Лабиринт (1-4 серии из 4) (Антон Гойда) [2020, мелодрама, WEB-DLRip]

19 | 3

2.27 ГБ

В этой теме нет новых непрочитанных сообщений. Лабиринт (1-4 серии из 4) (Антон Гойда) [2020, мелодрама, WEB-DLRip-AVC]

2 | 1

2.28 ГБ

В этой теме нет новых непрочитанных сообщений. Лабиринт (1-4 серии из 4) (Антон Гойда) [2020, мелодрама, WEBRip]

22 | 4

2.29 ГБ

В этой теме нет новых непрочитанных сообщений. Лабиринт (1-4 серии из 4) (Антон Гойда) [2020, мелодрама, WEBRip-AVC]

1 | 0

2.28 ГБ

В этой теме нет новых непрочитанных сообщений. Отречение (1-24 серии из 24) (Сергей Сотниченко, Антон Гойда) [2020, детектив, мелодрама, WEBRip]

46 | 5

13.52 ГБ

В этой теме нет новых непрочитанных сообщений. Отречение (1-10 серии из 24) (Сергей Сотниченко, Антон Гойда) [2020, детектив, мелодрама, WEBRip]

10 | 9

5.6 ГБ

В этой теме нет новых непрочитанных сообщений. Отречение (1-18 серии из 24) (Сергей Сотниченко, Антон Гойда) [2020, детектив, мелодрама, WEBRip-AVC]

2 | 0

10.19 ГБ




Вы не можете начинать темы
Вы не можете отвечать на сообщения
Вы не можете редактировать свои сообщения
Вы не можете удалять свои сообщения
Вы не можете добавлять вложения

Перейти:  
Контактная информация: rstracker[пёсик]yandex.ru
 Вход
ppkBB3cker v.2 © 2008-2014 @ PPK
[ Time : 0.024s | 16 Queries | GZIP : Off ]

cron