img image001 image001 image001 image001 image001 image001 image001 image001 image001 image001 image001 image001 image001 image001 image001

Planets Sun Sun Sun

COVID-19 - Последняя информация о коронавирусе на сайте Минздрава


Статистика раздачи
Автор: Снежана | Размер: 1.37 ГБ | Добавлен: 21 май 2020
Раздают: 15    Качают: 1


Скачать торрент
Скачать торрент
Описание торрента

СообщениеДобавлено: 21 май 2020 

Место!

Субтитры: английские
Формат: WEB-DLRip-AVC, MKV, H.264, AC3
Режиссер: Андрей Вальдберг
Жанр: комедия
Продолжительность: 00:59:11
Год выпуска: 2018

В ролях: Алексей Филимонов, Яна Гурьянова, Александр Кузнецов (IX), Михаил Кремер, Андрей Корешков, Иван Василевский (II), Олег Ребров, Евгений Березин, Владимир Царулков, Максим Мунхоев, Сергей Куаншалиев, Василий Миролюбов, Глеб Борисов, Дмитрий Полонский

Описание: В эту ночь никто не спит на районе. Серый пытается найти выход из депрессии. Его девушка Юля пытается найти заботу и понимание. Влюбленный в нее друг Краст пытается найти способ быть с ней. А друзья Краста Вова и Костя пытаются найти 10 граммов гашиша для вечеринки. Все они очень устали, но не могут перестать пытаться. Поэтому они курят, нюхают и пьют. Ведь если они остановятся, у них совсем ничего не останется.

Рейтинг и доп. информация:


Видео: 1024x432, (2,40:1), 24 fps, AVC MPEG-4 (x264), ~ 3127 kbps , 0.294 bit/pixel
Аудио: 48 kHz, AC3 Dolby Digital, 2/0 (L,R) ch, ~192 kbps
Общее
Уникальный идентификатор : 194807260831925120382953487154509432426 (0x928E8381F9D941B890B6713ADDA6C66A)
Полное имя : D:\Mesto.2018.WEB-DLRip-AVC.ExKinoRay.mkv
Формат : Matroska
Версия формата : Version 4 / Version 2
Размер файла : 1,37 Гбайт
Продолжительность : 59 м. 11 с.
Общий поток : 3320 Кбит/сек
Название фильма : Место!.2018.WEB-DLRip-AVC.grab777 & ExKinoRay
Дата кодирования : UTC 2020-05-18 02:26:37
Программа кодирования : mkvmerge v7.3.0 (''Nouages'') 64bit built on Oct 22 2014 18:53:34
Библиотека кодирования : libebml v1.3.0 + libmatroska v1.4.1

Видео
Идентификатор : 1
Формат : AVC
Формат/Информация : Advanced Video Codec
Профиль формата :
Настройки формата : CABAC / 12 Ref Frames
Параметр CABAC формата : Да
Параметр RefFrames формата : 12 кадров
Идентификатор кодека : V_MPEG4/ISO/AVC
Продолжительность : 59 м. 11 с.
Битрейт : 3127 Кбит/сек
Ширина : 1024 пикселя
Высота : 432 пикселя
Соотношение сторон : 2,40:1
Соотношение сторон в оригинале : 2,40:1
Режим частоты кадров : Постоянный
Частота кадров : 24,000 кадра/сек
Цветовое пространство : YUV
Субдискретизация насыщенности : 4:2:0
Битовая глубина : 8 бит
Тип развёртки : Прогрессивная
Бит/(Пиксели*Кадры) : 0.294
Размер потока : 1,29 Гбайт (94%)
Заголовок : Rip by grab777
Библиотека кодирования : x264 core 148 r2665M a01e339
Настройки программы : cabac=1 / ref=12 / deblock=1:-2:-2 / analyse=0x3:0x113 / me=umh / subme=10 / psy=1 / psy_rd=1.00:0.15 / mixed_ref=1 / me_range=32 / chroma_me=1 / trellis=2 / 8x8dct=1 / cqm=0 / deadzone=21,11 / fast_pskip=1 / chroma_qp_offset=-3 / threads=5 / lookahead_threads=1 / sliced_threads=0 / nr=0 / decimate=1 / interlaced=0 / bluray_compat=0 / constrained_intra=0 / bframes=10 / b_pyramid=2 / b_adapt=2 / b_bias=0 / direct=3 / weightb=1 / open_gop=0 / weightp=2 / keyint=240 / keyint_min=24 / scenecut=40 / intra_refresh=0 / rc_lookahead=40 / rc=crf / mbtree=0 / crf=15.6 / qcomp=0.60 / qpmin=0 / qpmax=69 / qpstep=4 / vbv_maxrate=30000 / vbv_bufsize=40000 / crf_max=0.0 / nal_hrd=none / filler=0 / ip_ratio=1.40 / pb_ratio=1.30 / aq=1:1.00
Язык : English
Default : Да
Forced : Нет
Цветовой диапазон : Limited
Основные цвета : BT.709
Характеристики трансфера : BT.709
Коэффициенты матрицы : BT.709

Аудио
Идентификатор : 2
Формат : AC-3
Формат/Информация : Audio Coding 3
Параметр Endianness формата : Big
Идентификатор кодека : A_AC3
Продолжительность : 59 м. 10 с.
Вид битрейта : Постоянный
Битрейт : 192 Кбит/сек
Каналы : 2 канала
Расположение каналов : Front: L R
Частота : 48,0 КГц
Частота кадров : 31,250 кадров/сек (1536 SPF)
Битовая глубина : 16 бит
Метод сжатия : С потерями
Размер потока : 81,3 Мбайт (6%)
Заголовок : Original (iTunes)
Язык : Russian
ServiceKind/String : Complete Main
Default : Да
Forced : Да

Текст
Идентификатор : 3
Формат : UTF-8
Идентификатор кодека : S_TEXT/UTF8
Идентификатор кодека/Информация : UTF-8 Plain Text
Продолжительность : 59 м. 9 с.
Битрейт : 49 бит/сек
ElementCount : 587
Размер потока : 21,3 Кбайт (0%)
Заголовок : Eng
Язык : English
Default : Нет
Forced : Нет

Меню
00:00:00.000 : :Глава 1
00:04:42.666 : :Глава 2
00:10:29.082 : :Глава 3
00:18:56.914 : :Глава 4
00:24:19.997 : :Глава 5
00:32:04.955 : :Глава 6
00:37:33.871 : :Глава 7
00:44:42.704 : :Глава 8
00:52:19.829 : :Глава 9









   Похожие торренты   Торрент   Размер 
В этой теме нет новых непрочитанных сообщений. Место! (Андрей Вальдберг) [2018, комедия, WEB-DLRip]

14 | 0

744.06 МБ

В этой теме нет новых непрочитанных сообщений. Скажи правду (1-8 серии из 8) (Андрей Эшпай) [2018, драма, комедия, WEB-DLRip-AVC]

23 | 1

5.07 ГБ

В этой теме нет новых непрочитанных сообщений. Скажи правду (1-6 серии из 8) (Андрей Эшпай) [2018, драма, комедия, WEB-DLRip-AVC]

1 | 0

3.81 ГБ

В этой теме нет новых непрочитанных сообщений. Скажи правду (1-4 серии из 8) (Андрей Эшпай) [2018, драма, комедия, WEB-DLRip-AVC]

10 | 8

2.56 ГБ

В этой теме нет новых непрочитанных сообщений. Скажи правду (1-2 серии из 8) (Андрей Эшпай) [2018, драма, комедия, WEB-DLRip-AVC]

12 | 0

1.29 ГБ

В этой теме нет новых непрочитанных сообщений. Папик (1-8 серии из 16) (Андрей Яковлев) [2019, комедия, WEB-DLRip-AVC]

4 | 0

3.04 ГБ

В этой теме нет новых непрочитанных сообщений. Папик (1-6 серии из 16) (Андрей Яковлев) [2019, комедия, WEB-DLRip-AVC]

0 | 0

2.24 ГБ




Вы не можете начинать темы
Вы не можете отвечать на сообщения
Вы не можете редактировать свои сообщения
Вы не можете удалять свои сообщения
Вы не можете добавлять вложения

Перейти:  
Контактная информация: rstracker[пёсик]yandex.ru
 Вход
ppkBB3cker v.2 © 2008-2014 @ PPK
[ Time : 0.712s | 16 Queries | GZIP : Off ]

cron