img image001 image001 image001 image001 image001 image001 image001 image001 image001 image001 image001 image001 image001 image001 image001

Planets Sun Sun Sun

COVID-19 - Последняя информация о коронавирусе на сайте Минздрава


Статистика раздачи
Автор: Снежана | Размер: 2.94 ГБ | Добавлен: 21 май 2020
Раздают: 60    Качают: 1


Скачать торрент
Скачать торрент
Описание торрента

СообщениеДобавлено: 21 май 2020 

Клерк (1-4 серии из 4)

Формат: HDTVRip-AVC, MKV, H.264, AC3
Режиссер: Дмитрий Коробкин
Жанр: триллер
Продолжительность: 4 х ~ 00:50:00
Год выпуска: 2017

В ролях: Арсений Робак, Ингрид Олеринская, Александра Богданова, Максим Лагашкин, Джемал Тетруашвили, Екатерина Стулова, Николай Шрайбер, Кирилл Емельянов, Игорь Хрипунов, Юлия Арутюнова, Михаил Данкин, Сергей Атрощенко, Юрий Ваксман, Сергей Внуков, Сергей Генкин, Денис Говорухин, Виктор Григорюк, Анна Уколова, Сослан Фидаров, Галина Ефанова, Андрей Зубков, Яна Иващенко, Сергей Карпов, Илья Коврижных, Пётр Круговихин, Наталья Кучеренко, Михаил Левченко, Владимир Майзингер, Татьяна Малькова, Алексей Матвеев, Виктория Мирошникова, Алексей Павлусенко, Руслан Халюзов, Олег Челноков, Сергей Шарифуллин, Елена Шевчук, Владимир Шульгин

Описание: Женя Скороходов – обычный клерк. Он заканчивает Финансовую академию, работает операционистом в банке. Его серую жизнь скрашивает безнадежная влюбленность в красавицу-коллегу Вику. Как-то в обеденный перерыв Женя развлекает Вику и коллег тем, что придумывает план идеального ограбления их банка. На следующий день происходит ограбление. Главный подозреваемый - Женя. С риском для жизни он начинает собственное расследование, в ходе которого, понимает, что Вика совсем не та, за кого себя выдает.

Рейтинг и доп. информация:


Видео: 1024x576, (16:9), 25 fps, AVC MPEG-4 (x264), ~ 2000 kbps , 0.136 bit/pixel
Аудио: 48 kHz, AC3, 2/0 (L,R) ch, ~192 kbps
Общее
Уникальный идентификатор : 234826645478630862554217154223397595838 (0xB0A9F781F4E28B26863C52441E3EEABE)
Полное имя : C:\Клерк.(2020).HDTVRip.(AVC).Files-x\01.Klerk.(2020).HDTVRip.(AVC).by.Серый1779.Files-x.mkv
Формат : Matroska
Версия формата : Version 2
Размер файла : 756 Мбайт
Продолжительность : 48 м. 10 с.
Общий поток : 2 194 Кбит/сек
Дата кодирования : UTC 2020-05-20 16:02:16
Программа кодирования : mkvmerge v7.8.0 (''River Man'') 32bit built on Apr 3 2015 12:11:22
Библиотека кодирования : libebml v1.3.1 + libmatroska v1.4.2

Видео
Идентификатор : 1
Формат : AVC
Формат/Информация : Advanced Video Codec
Профиль формата :
Настройки формата : CABAC / 9 Ref Frames
Параметр CABAC формата : Да
Параметр RefFrames формата : 9 кадров
Идентификатор кодека : V_MPEG4/ISO/AVC
Продолжительность : 48 м. 10 с.
Битрейт : 2 000 Кбит/сек
Ширина : 1 024 пикселя
Высота : 576 пикселей
Соотношение сторон : 16:9
Режим частоты кадров : Постоянный
Частота кадров : 25,000 кадров/сек
Цветовое пространство : YUV
Субдискретизация насыщенности : 4:2:0
Битовая глубина : 8 бит
Тип развёртки : Прогрессивная
Бит/(Пиксели*Кадры) : 0.136
Размер потока : 675 Мбайт (89%)
Библиотека кодирования : x264 core 146 r2538 121396c
Настройки программы : cabac=1 / ref=9 / deblock=1:-2:-1 / analyse=0x3:0x133 / me=umh / subme=9 / psy=1 / psy_rd=1.00:0.15 / mixed_ref=1 / me_range=32 / chroma_me=1 / trellis=2 / 8x8dct=1 / cqm=0 / deadzone=21,11 / fast_pskip=0 / chroma_qp_offset=-3 / threads=18 / lookahead_threads=3 / sliced_threads=0 / nr=0 / decimate=1 / interlaced=0 / bluray_compat=0 / constrained_intra=0 / bframes=9 / b_pyramid=2 / b_adapt=2 / b_bias=0 / direct=1 / weightb=1 / open_gop=0 / weightp=2 / keyint=250 / keyint_min=25 / scenecut=40 / intra_refresh=0 / rc=2pass / mbtree=0 / bitrate=2000 / ratetol=1.0 / qcomp=0.60 / qpmin=0 / qpmax=69 / qpstep=4 / cplxblur=20.0 / qblur=0.5 / ip_ratio=1.40 / pb_ratio=1.30 / aq=2:1.00
Default : Да
Forced : Нет
Цветовой диапазон : Limited
Основные цвета : BT.709
Характеристики трансфера : BT.709
Коэффициенты матрицы : BT.709
Duration_Source : General_Duration

Аудио
Идентификатор : 2
Формат : AC-3
Формат/Информация : Audio Coding 3
Коммерческое название : Dolby Digital
Идентификатор кодека : A_AC3
Продолжительность : 48 м. 10 с.
Вид битрейта : Постоянный
Битрейт : 192 Кбит/сек
Каналы : 2 канала
Channel layout : L R
Частота : 48,0 КГц
Частота кадров : 31,250 кадров/сек (1536 SPF)
Метод сжатия : С потерями
Размер потока : 66,2 Мбайт (9%)
Service kind : Complete Main
Default : Да
Forced : Нет
Duration_Source : General_Duration













   Похожие торренты   Торрент   Размер 
В этой теме нет новых непрочитанных сообщений. Клерк (1-4 серии из 4) (Дмитрий Коробкин) [2017, триллер, HDTVRip]

61 | 4

2.34 ГБ

В этой теме нет новых непрочитанных сообщений. Клерк (1-4 серии из 4) (Дмитрий Коробкин) [2017, триллер, HDTVRip 720p]

20 | 6

4.96 ГБ

В этой теме нет новых непрочитанных сообщений. Куба (2 сезон 1-14 серии из 20) (Дмитрий Коробкин) [2019, детектив, SATRip-AVC]

0 | 0

8.11 ГБ

В этой теме нет новых непрочитанных сообщений. Куба (2 сезон 1-8 серии из 20) (Дмитрий Коробкин) [2019, детектив, SATRip-AVC]

19 | 6

4.64 ГБ

В этой теме нет новых непрочитанных сообщений. Куба (2 сезон 1-10 серии из 20) (Дмитрий Коробкин) [2019, детектив, WEBRip-AVC]

3 | 0

7.5 ГБ

В этой теме нет новых непрочитанных сообщений. Куба (2 сезон 1-20 серии из 20) (Дмитрий Коробкин) [2019, детектив, SATRip-AVC]

40 | 6

11.56 ГБ

В этой теме нет новых непрочитанных сообщений. Куба (2 сезон 1-6 серии из 20) (Дмитрий Коробкин) [2019, детектив, SATRip-AVC]

0 | 0

3.46 ГБ




Вы не можете начинать темы
Вы не можете отвечать на сообщения
Вы не можете редактировать свои сообщения
Вы не можете удалять свои сообщения
Вы не можете добавлять вложения

Перейти:  
Контактная информация: rstracker[пёсик]yandex.ru
 Вход
ppkBB3cker v.2 © 2008-2014 @ PPK
[ Time : 0.021s | 16 Queries | GZIP : Off ]

cron