img image001 image001 image001 image001 image001 image001 image001 image001 image001 image001 image001 image001 image001 image001 image001

Planets Sun Sun Sun
Статистика раздачи
Автор: PriZraK | Размер: 1.37 ГБ | Добавлен: 23 мар 2022
Раздают: 0    Качают: 0
Скачать торрент
Скачать торрент
Описание торрента

СообщениеДобавлено: 23 мар 2022 

Оригинальное название: Он, она и я
Жанр: Фильмы / Мелодрама, Драма
Год выхода: 2007
Страна: Россия
Режиссер: Константин Худяков
В ролях: Александр Галибин, Иван Ургант, Екатерина Гусева, Юлия Рутберг, Юрий Беляев, Елена Бутенко

О фильме:
«Он, она и я» - новый фильм признанного мастера современного кинематографа Константина Худякова («Успех», «Другая женщина, другой мужчина», «На Верхней Масловке») и продюсера Сергея Сендыка («Невеста», «Любовники»).
Бурлит карнавал Жизни… Здесь правда и ложь перемешаны, но на пороге смерти срываются маски обнажаются чувства. Главный герой Дмитрий уходит из жизни спокойный и за семью, и за созданную им бизнес-империю. Но только Маша может не перенести потери. И последняя воля Дмитрия круто меняет судьбу молодого человека Дениса , который случайно оказался рядом с ним в эти дни…

Размер: 1.37 GB (1,470,068,736 bytes )
Длина видео: 01:26:54
Тип: DVDRip
Формат: AVI
Кодек: XVid
Видео: 704x432 (1.63:1) [=44:27], 1803 kb/s, fps 25.000, 0.237 bits/pixel
Звук: 448 kb/s (6 ch) CBR, 48000 Hz, ac3 (0x2000) Dolby Laboratories, Inc

Код:
Общее
Полное имя                               : C:on,ona.i.ay.2007.XviD.DVDRip-Same.avi
Формат                                   : AVI
Формат/Информация                        : Audio Video Interleave
Размер файла                             : 1,37 Гбайт
Продолжительность                        : 1 ч. 26 м.
Общий поток                              : 2256 Кбит/сек
Программа кодирования                    : VirtualDubMod 1.5.4.1 (build 2178/release)
Библиотека кодирования                   : VirtualDubMod build 2178/release

Видео
Идентификатор                            : 0
Формат                                   : MPEG-4 Visual
Профиль формата                          : Advanced Simple@L5
Параметр BVOP формата                    : 1
Параметр QPel формата                    : Нет
Параметр GMC формата                     : Без точки перехода
Параметр матрицы формата                 : Выборочная
Идентификатор кодека                     : XVID
Идентификатор кодека/Подсказка           : XviD
Продолжительность                        : 1 ч. 26 м.
Битрейт                                  : 1801 Кбит/сек
Ширина                                   : 704 пикселя
Высота                                   : 432 пикселя
Соотношение сторон                       : 16:10
Частота кадров                           : 25,000 кадров/сек
Цветовое пространство                    : YUV
Субдискретизация насыщенности            : 4:2:0
Битовая глубина                          : 8 бит
Тип развёртки                            : Прогрессивная
Метод сжатия                             : С потерями
Бит/(Пиксели*Кадры)                      : 0.237
Размер потока                            : 1,09 Гбайт (80%)
Библиотека кодирования                   : XviD 1.2.0.dev45 (UTC 2006-07-10)

Аудио
Идентификатор                            : 1
Формат                                   : AC-3
Формат/Информация                        : Audio Coding 3
Расширение режима                        : CM (complete main)
Параметр Endianness формата              : Big
Идентификатор кодека                     : 2000
Продолжительность                        : 1 ч. 26 м.
Вид битрейта                             : Постоянный
Битрейт                                  : 448 Кбит/сек
Каналы                                   : 6 каналов
Расположение каналов                     : Front: L C R, Side: L R, LFE
Частота                                  : 48,0 КГц
Частота кадров                           : 31,250 кадров/сек (1536 spf)
Метод сжатия                             : С потерями
Размер потока                            : 278 Мбайт (20%)
Выравнивание                             : Разделение по промежуткам
Продолжительность промежутка             : 96  мс. (2,40 видеокадра)
Время предзагрузки промежутка            : 96  мс.





   Похожие торренты   Торрент   Размер 
В этой теме нет новых непрочитанных сообщений. Отпечаток / Imprint (2007) DVDRip | L1

18 | 2

1.49 ГБ

В этой теме нет новых непрочитанных сообщений. Астропия / Astrópía (2007) DVDRip | Sub

0 | 0

1.37 ГБ

В этой теме нет новых непрочитанных сообщений. Русалка (2007) DVDRip-AVC

7 | 0

2.19 ГБ

В этой теме нет новых непрочитанных сообщений. Русалка (2007) DVDRip от ExKinoRay

3 | 4

1.46 ГБ

В этой теме нет новых непрочитанных сообщений. Антидурь (2007) DVDRip от ExKinoRay

0 | 0

745.35 МБ

В этой теме нет новых непрочитанных сообщений. Русалка (2007) DVDRip от ExKinoRay

2 | 2

747.53 МБ

В этой теме нет новых непрочитанных сообщений. Снежный ангел (2007) DVDRip от ExKinoRay

0 | 0

745.8 МБ




Вы не можете начинать темы
Вы не можете отвечать на сообщения
Вы не можете редактировать свои сообщения
Вы не можете удалять свои сообщения
Вы не можете добавлять вложения

Перейти:  
Контактная информация: rstracker[пёсик]yandex.ru
 Вход
ppkBB3cker v.2 © 2008-2014 @ PPK
[ Time : 0.024s | 18 Queries | GZIP : Off ]

cron