img image001 image001 image001 image001 image001 image001 image001 image001 image001 image001 image001 image001 image001 image001 image001

Planets Sun Sun Sun
Статистика раздачи
Автор: PriZraK | Размер: 8.07 ГБ | Добавлен: 23 мар 2022
Раздают: 0    Качают: 0
Скачать торрент
Скачать торрент
Описание торрента

СообщениеДобавлено: 23 мар 2022 

Информация о фильме
Название: Шаг
Год выхода: 1988
Жанр: Драма
Режиссер: Александр Митта
В ролях: Леонид Филатов, Комаки Курихара, Олег Табаков, Елена Яковлева, Владимир Ильин, Андрей Харитонов, Вера Трофимова, Сергей Марин, Гарик Сукачёв, Владимир Сычёв, Алика Смехова, Геннадий Венгеров, Олег Ли, Тамаэ Ониси, Фумико Кэро, Ринко Мацудзава, Масаки Тэрасома, Детлеф Кюгов, Такэтоси Наито, Акира Кумэ, Го Ватанабе

О фильме:
Действие фильма происходит в Москве и Токио в 1959 году. Японская женщина Кейко, мать двоих детей, и советский ученый профессор-иммунолог Гусев, создатель вакцины против полиомиелита, вопреки бюрократическому сопротивлению чиновников обеих стран, добиваются отправки нового лекарства в Японию. Так было спасено 10 миллионов японских детей.


Страна: СССР, Япония
Студия: Мосфильм, Сигото Филм Продакшн, Совинфильм
Продолжительность: 01:55:17
Перевод: Оригинал | Киноконцерн "Мосфильм"
Дата выпуска: 11 июн. 2021 г.

Файл
Кодек: x.264
Качество: WEBRip 1080p
Видео: MPEG-4 AVC, 9800 Kбит/с, 1584x1080, 25.000 кадр/с
Аудио #1: Русский (АС3, 2 ch, 224 Кбит/с, 48.0 KHz) Оригинал
Субтитры: Нет


General
Unique ID : 188739318111089938709794446799619781052 (0x8DFDDED55FE420308C962757137C71BC)
Complete name : Шаг.1988.WEBRip.1080p.mkv
Format : Matroska
Format version : Version 4 / Version 2
File size : 8.07 GiB
Duration : 1 h 55 min
Overall bit rate : 10.0 Mb/s
Encoded date : UTC 2021-06-30 06:25:56
Writing application : mkvmerge v7.1.0 ('Good Love') 64bit built on Jul 27 2014 13:06:55
Writing library : libebml v1.3.0 + libmatroska v1.4.1

Video
ID : 1
Format : AVC
Format/Info : Advanced Video Codec
Format profile : High@L4.1
Format settings, CABAC : Yes
Format settings, RefFrames : 4 frames
Codec ID : V_MPEG4/ISO/AVC
Duration : 1 h 55 min
Bit rate : 9 800 kb/s
Width : 1 584 pixels
Height : 1 080 pixels
Display aspect ratio : 3:2
Frame rate mode : Constant
Frame rate : 25.000 FPS
Color space : YUV
Chroma subsampling : 4:2:0
Bit depth : 8 bits
Scan type : Progressive
Bits/(Pixel*Frame) : 0.229
Stream size : 7.89 GiB (98%)
Writing library : x264 core 157 r2958 57baac4
Encoding settings : cabac=1 / ref=4 / deblock=1:-3:-3 / analyse=0x3:0x113 / me=umh / subme=11 / psy=1 / psy_rd=1.00:0.00 / mixed_ref=1 / me_range=32 / chroma_me=1 / trellis=2 / 8x8dct=1 / cqm=0 / deadzone=21,11 / fast_pskip=0 / chroma_qp_offset=-2 / threads=18 / lookahead_threads=3 / sliced_threads=0 / nr=0 / decimate=1 / interlaced=0 / bluray_compat=0 / constrained_intra=0 / bframes=8 / b_pyramid=2 / b_adapt=2 / b_bias=0 / direct=3 / weightb=1 / open_gop=0 / weightp=2 / keyint=250 / keyint_min=25 / scenecut=40 / intra_refresh=0 / rc=2pass / mbtree=0 / bitrate=9800 / ratetol=1.0 / qcomp=0.70 / qpmin=3 / qpmax=69 / qpstep=4 / cplxblur=20.0 / qblur=0.5 / ip_ratio=1.40 / pb_ratio=1.30 / aq=2:1.00
Language : Russian
Default : Yes
Forced : No
Color range : Limited
Color primaries : BT.709
Transfer characteristics : BT.709
Matrix coefficients : BT.709

Audio
ID : 2
Format : AC-3
Format/Info : Audio Coding 3
Format settings, Endianness : Big
Codec ID : A_AC3
Duration : 1 h 55 min
Bit rate mode : Constant
Bit rate : 224 kb/s
Channel(s) : 2 channels
Channel positions : Front: L R
Sampling rate : 48.0 kHz
Frame rate : 31.250 FPS (1536 SPF)
Bit depth : 16 bits
Compression mode : Lossy
Stream size : 185 MiB (2%)
Language : Russian
Service kind : Complete Main
Default : Yes
Forced : No

   Похожие торренты   Торрент   Размер 
В этой теме нет новых непрочитанных сообщений. Шире шаг, маэстро! (1975) WEBRip 1080p

6 | 0

788.74 МБ

В этой теме нет новых непрочитанных сообщений. Шаг за шагом / Work It (2020) WEBRip | L1

0 | 0

1.39 ГБ

В этой теме нет новых непрочитанных сообщений. Шаг / Крок (Юлиан Савицкий) [2018, Боевик, Криминал, WEBRip]

31 | 0

1.37 ГБ

В этой теме нет новых непрочитанных сообщений. Леонид Млечин. Вспомнить все (Маршал Жуков. Один шаг до власти?) [2019, документальный, история, WEBRip]

1 | 0

341.28 МБ

В этой теме нет новых непрочитанных сообщений. Мой любимый враг / Шаг навстречу [01-04 из 04] (2020) WEB-DL 1080p от Files-x

0 | 0

4.71 ГБ

В этой теме нет новых непрочитанных сообщений. Шаг вперед: Жар улиц / Somos Calentura: We Are The Heat (2018) WEB-DL 1080p от ELEKTRI4KA | IVI

0 | 0

7.49 ГБ

В этой теме нет новых непрочитанных сообщений. Шаг вперед / Step Up (2006) BDRip-HEVC 1080p от HEVC-CLUB | D

0 | 0

6.54 ГБ




Вы не можете начинать темы
Вы не можете отвечать на сообщения
Вы не можете редактировать свои сообщения
Вы не можете удалять свои сообщения
Вы не можете добавлять вложения

Перейти:  
Контактная информация: rstracker[пёсик]yandex.ru
 Вход
ppkBB3cker v.2 © 2008-2014 @ PPK
[ Time : 0.023s | 19 Queries | GZIP : Off ]

cron