img image001 image001 image001 image001 image001 image001 image001 image001 image001 image001 image001 image001 image001 image001 image001

Planets Sun Sun Sun
Статистика раздачи
Автор: PriZraK | Размер: 372.28 МБ | Добавлен: 23 мар 2022
Раздают: 8    Качают: 0
Скачать торрент
Скачать торрент
Описание торрента

СообщениеДобавлено: 23 мар 2022 

Страна: СССР
Производство: Мосфильм

Жанр: драма, короткометражный
Год выпуска: 1966
Продолжительность: 00:27:32

Перевод: не требуется
Оригинальная аудиодорожка: русский
Cубтитры: нет

Режиссер: Александр Бланк

В ролях:
Анастасия Вознесенская, Алексей Сафонов...
Об актёрах подробней

Описание:
Очередной вызов во время ночного дежурства пробуждает в Сергее Алексеевиче, враче скорой помощи, воспоминания о первой любви к фронтовой медсестре.





Источник: DVB
Качество видео: SATRip-AVC
Формат видео: MKV

Видео: 712->760x570 (4:3), 25,000 кадра/сек, x264 core 164 ~ 1 696 кбит/сек, 0.167 бит/пиксель
Аудио: 48 кГц, Dolby Digital AC3 2.0, 192 кбит/сек

Раздача от:
Общее
Полное имя : Первая любовь.1966.SATRip-AVC_[New-team]_by_AVP_Studio.mkv
Формат : Matroska
Версия формата : Version 2
Размер файла : 372 Мбайт
Продолжительность : 27 м. 32 с.
Общий поток : 1 889 Кбит/сек
Дата кодирования : UTC 2022-03-21 09:56:09
Программа кодирования : mkvmerge v6.9.1 ('Blue Panther') 32bit built on Apr 18 2014 18:15:44
Библиотека кодирования : libebml v1.3.0 + libmatroska v1.4.1

Видео
Идентификатор : 1
Формат : AVC
Формат/Информация : Advanced Video Codec
Профиль формата : High@L4.1
Настройки формата : CABAC / 10 Ref Frames
Параметр CABAC формата : Да
Параметр RefFrames формата : 10 кадров
Идентификатор кодека : V_MPEG4/ISO/AVC
Продолжительность : 27 м. 32 с.
Битрейт : 1 696 Кбит/сек
Ширина : 712 пикселей
Высота : 570 пикселей
Соотношение сторон : 4:3
Режим частоты кадров : Постоянный
Частота кадров : 25,000 кадров/сек
Цветовое пространство : YUV
Субдискретизация насыщенности : 4:2:0
Битовая глубина : 8 бит
Тип развёртки : Прогрессивная
Бит/(Пиксели*Кадры) : 0.167
Размер потока : 327 Мбайт (88%)
Библиотека кодирования : x264 core 164 r3081 19856cc
Настройки программы : cabac=1 / ref=10 / deblock=1:-2:-1 / analyse=0x3:0x113 / me=umh / subme=10 / psy=1 / psy_rd=1.00:0.00 / mixed_ref=1 / me_range=32 / chroma_me=1 / trellis=2 / 8x8dct=1 / cqm=0 / deadzone=21,11 / fast_pskip=1 / chroma_qp_offset=-2 / threads=6 / lookahead_threads=1 / sliced_threads=0 / nr=0 / decimate=0 / interlaced=0 / bluray_compat=0 / constrained_intra=0 / bframes=8 / b_pyramid=2 / b_adapt=2 / b_bias=0 / direct=3 / weightb=1 / open_gop=0 / weightp=2 / keyint=250 / keyint_min=25 / scenecut=40 / intra_refresh=0 / rc=2pass / mbtree=0 / bitrate=1696 / ratetol=1.0 / qcomp=0.60 / qpmin=0 / qpmax=69 / qpstep=4 / cplxblur=20.0 / qblur=0.5 / ip_ratio=1.40 / pb_ratio=1.30 / aq=1:1.00
Default : Да
Forced : Нет

Аудио
Идентификатор : 2
Формат : AC-3
Формат/Информация : Audio Coding 3
Коммерческое название : Dolby Digital
Идентификатор кодека : A_AC3
Продолжительность : 27 м. 32 с.
Вид битрейта : Постоянный
Битрейт : 192 Кбит/сек
Каналы : 2 канала
Channel layout : L R
Частота : 48,0 КГц
Частота кадров : 31,250 кадров/сек (1536 SPF)
Метод сжатия : С потерями
Размер потока : 37,8 Мбайт (10%)
Default : Да
Forced : Нет



   Похожие торренты   Торрент   Размер 
В этой теме нет новых непрочитанных сообщений. Первая любовь (1966) SATRip от New-Team

0 | 4

372.95 МБ

В этой теме нет новых непрочитанных сообщений. Лабиринт (1966) SATRip-AVC от New-Team

0 | 0

1.09 ГБ

В этой теме нет новых непрочитанных сообщений. Ноктюрн (1966) SATRip-AVC от New-Team

3 | 0

1.09 ГБ

В этой теме нет новых непрочитанных сообщений. 12 стульев (1966) SATRip-AVC от New-Team

10 | 0

1.46 ГБ

В этой теме нет новых непрочитанных сообщений. Неизвестная... (1966) SATRip-AVC от New-Team

0 | 0

1.46 ГБ

В этой теме нет новых непрочитанных сообщений. Душечка (1966) SATRip-AVC от New-Team

4 | 0

1.09 ГБ

В этой теме нет новых непрочитанных сообщений. Заблудший (1966) SATRip-AVC от New-Team

0 | 0

1.09 ГБ




Вы не можете начинать темы
Вы не можете отвечать на сообщения
Вы не можете редактировать свои сообщения
Вы не можете удалять свои сообщения
Вы не можете добавлять вложения

Перейти:  
Контактная информация: rstracker[пёсик]yandex.ru
 Вход
ppkBB3cker v.2 © 2008-2014 @ PPK
[ Time : 0.026s | 18 Queries | GZIP : Off ]

cron