img image001 image001 image001 image001 image001 image001 image001 image001 image001 image001 image001 image001 image001 image001 image001

Planets Sun Sun Sun
Статистика раздачи
Автор: Снежана | Размер: 1.45 ГБ | Добавлен: 24 июл 2013
Раздают: 424    Качают: 22
Скачать торрент
Скачать торрент
Описание торрента

СообщениеДобавлено: 24 июл 2013 

#77

Информация о фильме

Название: Дело было в Пенькове
Оригинальное название: It Happened in Penkovo
Год выхода: 1957
Жанр: Мелодрама / Драма

Лидер проката (1958, 13 место) - 30.5 млн. зрителей.

Режиссер: Станислав Ростоцкий
В ролях: Вячеслав Тихонов (...Матвей Морозов), Майя Менглет (...Тоня), Светлана Дружинина (...жена Матвея), Анатолий Кубацкий (...Глечиков), Юрий Медведев (...Зефиров), Юрий Мартынов, Иван Рыжов (...колхозник), Георгий Светлани (...Митрич), Евгения Мельникова (...мать Матвея), Валентина Телегина (...Алевтина), Сергей Яковлев, Владимир Трошин, Евгений Гуров, Владимир Ратомский (...Иван Саввич), Екатерина Мазурова (...жена председателя), Яков Ленц (...работник сельсовета), Александра Харитонова, Григорий Михайлов.

Описание: Тракторист Матвей Морозов (Тихонов), парень веселый и озорной, гроза всей деревни. Его любила дочь председателя, и любви этой отец не одобрял. Тем не менее Матвей на ней женился, и все было бы тихо да спокойно, но... В колхоз к деду приехала из Ленинграда Тоня, и устоявшиеся нравы и обычаи в деревне начинают меняться. Она собирает молодежь, затевает строительство нового клуба. Тоню тянет к прямому, дерзкому и красивому Матвею, а его - к ней. Подлая и завистливая самогонщица Алевтина вставляет палки в колеса. Из-за нее получил Матвей срок...

Страна:
Выпущено: К/ст им.Горького
Продолжительность: 01:34:13
Язык: Русский

Скачать сэмпл (30MB/00:02:06)

Качество: DVDRip AVC
Видео: MPEG4 Video (H264) 720x576 (4:3) 25.00fps
Аудио: Dolby AC3 48000Hz 6ch
Субтитры: Русские

Дело было в Пенькове (1957) DVDRip AVCDelo (1957) DVDRip AVC.mkv
Format : Matroska
File size : 1.45 GiB
Duration : 1h 34mn
Overall bit rate : 2 206 Kbps
Encoded date : UTC 2009-12-06 08:00:15
Writing application : mkvmerge v2.4.1 ('Use Me') built on Dec 5 2008 15:43:32
Writing library : libebml v0.7.7 + libmatroska v0.8.1

Video
ID : 1
Format : AVC
Format/Info : Advanced Video Codec
Format profile : Main@L4.0
Format settings, CABAC : Yes
Format settings, ReFrames : 2 frames
Muxing mode : Container profile=Unknown@4.0
Codec ID : V_MPEG4/ISO/AVC
Duration : 1h 34mn
Bit rate : 1 778 Kbps
Nominal bit rate : 1 809 Kbps
Width : 720 pixels
Height : 576 pixels
Display aspect ratio : 4:3
Original display aspect ratio : 5:4
Frame rate : 25.000 fps
Standard : PAL
Resolution : 24 bits
Colorimetry : 4:2:0
Scan type : Progressive
Bits/(Pixel*Frame) : 0.172
Stream size : 1.17 GiB (81%)
Title : Дело
Writing library : x264 core 66 r1092 60f4cd8
Encoding settings : cabac=1 / ref=1 / deblock=0:0:0 / analyse=0x1:0x111 / me=dia / subme=2 / psy_rd=0.0:0.0 / mixed_ref=0 / me_range=8 / chroma_me=0 / trellis=0 / 8x8dct=0 / cqm=0 / deadzone=21,11 / chroma_qp_offset=0 / threads=3 / nr=0 / decimate=1 / mbaff=0 / bframes=2 / b_pyramid=0 / b_adapt=0 / b_bias=0 / direct=1 / wpredb=0 / keyint=250 / keyint_min=25 / scenecut=40(pre) / rc=cbr / bitrate=1809 / ratetol=1.0 / qcomp=0.60 / qpmin=10 / qpmax=51 / qpstep=4 / vbv_maxrate=25000 / vbv_bufsize=14000 / ip_ratio=1.40 / pb_ratio=1.30 / aq=1:1.00

Audio
ID : 2
Format : AC-3
Format/Info : Audio Coding 3
Codec ID : A_AC3
Duration : 1h 34mn
Bit rate mode : Constant
Bit rate : 384 Kbps
Channel(s) : 6 channels
Channel positions : Front: L C R, Surround: L R, LFE
Sampling rate : 48.0 KHz
Stream size : 259 MiB (17%)
Language : Russian

Text
ID : 3
Format : VobSub
Codec ID : S_VOBSUB
Codec ID/Info : The same subtitle format used on DVDs
Language : Russian










Памяти великого актёра посвящается




   Похожие торренты   Торрент   Размер 
В этой теме нет новых непрочитанных сообщений. Дело было в Пенькове (1957) DVDRip от Youtracker

93 | 20

745.49 МБ

В этой теме нет новых непрочитанных сообщений. Дело было в Пенькове (1957) DVDRip от Youtracker

567 | 34

1.45 ГБ

В этой теме нет новых непрочитанных сообщений. Дело было в Пенькове (1957) DVD5

17 | 4

4.21 ГБ

В этой теме нет новых непрочитанных сообщений. Дело о ядах / Дело отравителей / L'affaire des poisons (1955) DVDRip | SATKUR

95 | 15

1.55 ГБ

В этой теме нет новых непрочитанных сообщений. Дело есть дело / Что я вижу / Wat zien ik (1971) DVDRip-AVC by AndreSweet | P

34 | 30

1.45 ГБ

В этой теме нет новых непрочитанных сообщений. Дело есть дело / Wat zien ik (1971) DVDRip

0 | 3

1.37 ГБ

В этой теме нет новых непрочитанных сообщений. Орленок (1957) DVDRip

202 | 12

1.08 ГБ




Вы не можете начинать темы
Вы не можете отвечать на сообщения
Вы не можете редактировать свои сообщения
Вы не можете удалять свои сообщения
Вы не можете добавлять вложения

Перейти:  
Для Мосгорсуда, Роскомнадзора и рекламодателей: mosgorsud-torrent[собачка]yandex.ru
 Вход
ppkBB3cker v.2 © 2008-2014 @ PPK
[ Time : 0.017s | 14 Queries | GZIP : On ]

Торрент трекер RUTOR.IN, Не можете зайти на rutor.org? Какой новый адрес рутор? Какое зеркало рутор? Не работает rutor.org и зеркала? Тогда наш торрент специально для вас. Rutor.in неофициальное зеркало rutor. В случае если у Вас заблокирован rutor или вдруг Вы не можете на него зайти, то Вы без труда сможете скачать бесплатно и без рекламы последние новинки кино, игр, сериалов и прочего у нас, на Rutor.in. Не нужно использовать прокси, чтобы зайти на рутор, достаточно воспользоваться нашим ресурсом. Все новые фильмы, игры, сериалы, книги и музыка за 2013 и 2014 годы через торрент бесплатно. Скачивайте фильмы в хорошем качестве, игры для пк, xbox, playstation без регистрации. У нас вы найдете новые Зарубежные сериалы и Русские сериалы 2013, 2014, 2015 годов. Оставайтесь с нами, качайте любимые фильмы, игры, сериалы, книги и музыку.