img image001 image001 image001 image001 image001 image001 image001 image001 image001 image001 image001 image001 image001 image001 image001

Planets Sun Sun Sun
Статистика раздачи
Автор: Снежана | Размер: 1.77 ГБ | Добавлен: 24 июл 2013
Раздают: 7    Качают: 2
Скачать торрент
Скачать торрент
Описание торрента

СообщениеДобавлено: 24 июл 2013 

Офицеры / Ofitsery / Officers (1971) DVDRip AVC



Информация о фильме:

Название: Офицеры
Оригинальное название: Ofitsery / Officers
Год выхода: 1971
Жанр: Мелодрама / Драма / Военный

Режиссер: Владимир Роговой
В ролях: Алина Покровская, Георгий Юматов, Василий Лановой, Андрей Анисимов, А. Воеводин, Наталья Рычагова, Андрей Громов, Юрий Соркин, Владимир Дружников, Ш. Акмухамедов, Евгений Весник и другие...

Описание: Хотя фильм называется "Офицеры", это не совсем про войну. Это замечательная мелодрама о жизни людей, охватывающая судьбы двух офицеров (Юматов и Лановой), семьи одного из них (Лановой всю жизнь любил жену Юматова), их друзей, детей и внуков на примере трех поколений. Начинается действие в гражданскую войну, включает Великую Отечественную, а заканчивается в дни выхода фильма на экраны. Смотрится с чувством и интересом, и не создается впечатления, что все это - "социалистическая агитка". (с) Иванов М.

Страна:
Выпущено: К/с им. М. Горького.
Продолжительность: 01:30:41
Язык: Русский

Сэмпл 32MB /00:01:38/

Качество: DVDRip AVC
Видео: MPEG4 Video (H264) 704x296 25.00fps
Аудио 1: Dolby AC3 48000Hz 6 channels 448 Kbps
Аудио 2: Dolby AC3 48000Hz 1 channel 224 Kbps

General
Complete name: Ofitsery (1971) DVDRip AVC dual rus.mkv
Format : Matroska
File size : 1.77 GiB
Duration : 1h 30mn
Overall bit rate : 2 788 Kbps
Encoded date : UTC 2009-12-14 21:21:02
Writing application : mkvmerge v2.4.1 ('Use Me') built on Dec 5 2008 15:43:32
Writing library : libebml v0.7.7 + libmatroska v0.8.1

Video
ID : 1
Format : AVC
Format/Info : Advanced Video Codec
Format profile : Main@L4.0
Format settings, CABAC : Yes
Format settings, ReFrames : 2 frames
Muxing mode : Container profile=Unknown@4.0
Codec ID : V_MPEG4/ISO/AVC
Duration : 1h 30mn
Bit rate : 2 060 Kbps
Nominal bit rate : 2 096 Kbps
Width : 704 pixels
Height : 296 pixels
Display aspect ratio : 2.35:1
Frame rate : 25.000 fps
Resolution : 24 bits
Colorimetry : 4:2:0
Scan type : Progressive
Bits/(Pixel*Frame) : 0.395
Stream size : 1.31 GiB (74%)
Title : Ofitsery (1971)
Writing library : x264 core 66 r1092 60f4cd8
Encoding settings : cabac=1 / ref=1 / deblock=0:0:0 / analyse=0x1:0x111 / me=dia / subme=2 / psy_rd=0.0:0.0 / mixed_ref=0 / me_range=8 / chroma_me=0 / trellis=0 / 8x8dct=0 / cqm=0 / deadzone=21,11 / chroma_qp_offset=0 / threads=3 / nr=0 / decimate=1 / mbaff=0 / bframes=2 / b_pyramid=0 / b_adapt=0 / b_bias=0 / direct=1 / wpredb=0 / keyint=250 / keyint_min=25 / scenecut=40(pre) / rc=cbr / bitrate=2096 / ratetol=1.0 / qcomp=0.60 / qpmin=10 / qpmax=51 / qpstep=4 / vbv_maxrate=25000 / vbv_bufsize=14000 / ip_ratio=1.40 / pb_ratio=1.30 / aq=1:1.00

Audio #1
ID : 2
Format : AC-3
Format/Info : Audio Coding 3
Codec ID : A_AC3
Duration : 1h 30mn
Bit rate mode : Constant
Bit rate : 448 Kbps
Channel(s) : 6 channels
Channel positions : Front: L C R, Surround: L R, LFE
Sampling rate : 48.0 KHz
Stream size : 291 MiB (16%)
Language : Russian

Audio #2
ID : 3
Format : AC-3
Format/Info : Audio Coding 3
Codec ID : A_AC3
Duration : 1h 30mn
Bit rate mode : Constant
Bit rate : 224 Kbps
Channel(s) : 1 channel
Channel positions : C
Sampling rate : 48.0 KHz
Stream size : 145 MiB (8%)
Language : Russian
















Источник DVD5 (L)



   Похожие торренты   Торрент   Размер 
В этой теме нет новых непрочитанных сообщений. Офицеры (1971) DVDRip

212 | 12

1.09 ГБ

В этой теме нет новых непрочитанных сообщений. Офицеры (1971) DVDRip от PlanetaUA

78 | 13

1.37 ГБ

В этой теме нет новых непрочитанных сообщений. Офицеры (1971) DVDRip-AVC от MediaClub

679 | 11

2.13 ГБ

В этой теме нет новых непрочитанных сообщений. Офицеры (1971) DVDRip | Цветная версия

190 | 7

1.5 ГБ

В этой теме нет новых непрочитанных сообщений. Офицеры (1971) DVDRip | Цветная версия

72 | 38

1.37 ГБ

В этой теме нет новых непрочитанных сообщений. Офицеры (1971) DVDRip от AndrewWhite | Цветная версия

34 | 5

1.46 ГБ

В этой теме нет новых непрочитанных сообщений. Офицеры (1971) DVDRip от Zona-X | Цветная версия

23 | 3

1.36 ГБ




Вы не можете начинать темы
Вы не можете отвечать на сообщения
Вы не можете редактировать свои сообщения
Вы не можете удалять свои сообщения
Вы не можете добавлять вложения

Перейти:  
Для Мосгорсуда, Роскомнадзора и рекламодателей: mosgorsud-torrent[собачка]yandex.ru
 Вход
ppkBB3cker v.2 © 2008-2014 @ PPK
[ Time : 0.119s | 14 Queries | GZIP : Off ]

Торрент трекер RUTOR.IN, Не можете зайти на rutor.org? Какой новый адрес рутор? Какое зеркало рутор? Не работает rutor.org и зеркала? Тогда наш торрент специально для вас. Rutor.in неофициальное зеркало rutor. В случае если у Вас заблокирован rutor или вдруг Вы не можете на него зайти, то Вы без труда сможете скачать бесплатно и без рекламы последние новинки кино, игр, сериалов и прочего у нас, на Rutor.in. Не нужно использовать прокси, чтобы зайти на рутор, достаточно воспользоваться нашим ресурсом. Все новые фильмы, игры, сериалы, книги и музыка за 2013 и 2014 годы через торрент бесплатно. Скачивайте фильмы в хорошем качестве, игры для пк, xbox, playstation без регистрации. У нас вы найдете новые Зарубежные сериалы и Русские сериалы 2013, 2014, 2015 годов. Оставайтесь с нами, качайте любимые фильмы, игры, сериалы, книги и музыку.