img image001 image001 image001 image001 image001 image001 image001 image001 image001 image001 image001 image001 image001 image001 image001

Planets Sun Sun Sun
Статистика раздачи
Автор: Снежана | Размер: 1.45 ГБ | Добавлен: 23 июл 2013
Раздают: 5    Качают: 2
Скачать торрент
Скачать торрент
Описание торрента

СообщениеДобавлено: 23 июл 2013 


Информация о фильме
Название: Операция "Ы" и другие приключения Шурика
Оригинальное название: Operation Y and Other Shurik's Adventures
Год выхода: 1965
Жанр: Комедия, Советское кино
Награды и призы:
Лидер проката (1965, 1 место) - 69.6 млн.зр.
Призы: Краков-65.

Режиссер: Леонид Гайдай.
Сценарий: Яков Костюковский, Морис Слободской, Леонид Гайдай.
Композитор: Александр Зацепин.
В ролях:
"НАПАРНИК"
Александр Демьяненко, Алексей Смирнов, Михаил Пуговкин, Владимир Басов, Эммануил Геллер, Рина Зеленая, Виктор Уральский, Г. Ахундов, Валентина Березуцкая, Светлана Агеева.
"НАВАЖДЕНИЕ"
Александр Демьяненко, Наталья Селезнева, Владимир Раутбарт, Виктор Павлов, Валерий Носик, Георгий Георгиу, Наталья Гицерот, Зоя Федорова, Виктор Зозулин, С. Жирнов, Л. Ковалец.
"ОПЕРАЦИЯ Ы"
Александр Демьяненко, Юрий Никулин, Георгий Вицин, Евгений Моргунов, Владимир Владиславский, М. Кравчуновская, В. Комаровский, Таня Градова.
Описание:
Фильм состоит из трех новелл, объединенных фигурой главного героя Шурика, попадающего в самые невероятные ситуации. В «Напарнике» Шурик сражается с хулиганом Верзилой; в «Наваждении» весьма оригинальным способом готовится к экзамену; в «Операции «Ы» предотвращает «ограбление века», на которое идет знаменитая тройка — Балбес, Трус и Бывалый.
Страна:
Выпущено: Мосфильм
Продолжительность: 01:30:42
Язык: Русский
Скачать сэмпл (16MB/00:01:00)
Качество: DVDRip AVC (Исходник DVD5)
Формат: AVC /Advanced Video Coding/
Контейнер: MKV /Matroska Multimedia Container/
Видео: MPEG4 Video (H264) 704x528 25.00fps
Аудио 1: Dolby AC3 48000Hz 6ch
Аудио 2: Dolby AC3 48000Hz 2ch
Субтитры: Нет
Video
ID : 1
Format : AVC
Format/Info : Advanced Video Codec
Format profile : Main@L4.0
Format settings, CABAC : Yes
Format settings, ReFrames : 2 frames
Muxing mode : Container profile=Unknown@4.0
Codec ID : V_MPEG4/ISO/AVC
Duration : 1h 30mn
Bit rate : 1 599 Kbps
Nominal bit rate : 1 642 Kbps
Width : 704 pixels
Height : 528 pixels
Display aspect ratio : 4:3
Frame rate : 25.000 fps
Resolution : 8 bits
Colorimetry : 4:2:0
Scan type : Progressive
Bits/(Pixel*Frame) : 0.172
Stream size : 1.01 GiB (70%)
Title : Операция Ы и другие приключения Шурика (1965) DVD5
Writing library : x264 core 66 r1092 60f4cd8
Encoding settings : cabac=1 / ref=1 / deblock=0:0:0 / analyse=0x1:0x111 / me=dia / subme=2 / psy_rd=0.0:0.0 / mixed_ref=0 / me_range=8 / chroma_me=0 / trellis=0 / 8x8dct=0 / cqm=0 / deadzone=21,11 / chroma_qp_offset=0 / threads=3 / nr=0 / decimate=1 / mbaff=0 / bframes=2 / b_pyramid=0 / b_adapt=0 / b_bias=0 / direct=1 / wpredb=0 / keyint=250 / keyint_min=25 / scenecut=40(pre) / rc=cbr / bitrate=1642 / ratetol=1.0 / qcomp=0.60 / qpmin=10 / qpmax=51 / qpstep=4 / vbv_maxrate=25000 / vbv_bufsize=14000 / ip_ratio=1.40 / pb_ratio=1.30 / aq=1:1.00
Audio #1
ID : 2
Format : AC-3
Format/Info : Audio Coding 3
Codec ID : A_AC3
Duration : 1h 30mn
Bit rate mode : Constant
Bit rate : 448 Kbps
Channel(s) : 6 channels
Channel positions : Front: L C R, Surround: L R, LFE
Sampling rate : 48.0 KHz
Video delay : 292ms
Stream size : 291 MiB (20%)
Language : Russian
Audio #2
ID : 3
Format : AC-3
Format/Info : Audio Coding 3
Codec ID : A_AC3
Duration : 1h 30mn
Bit rate mode : Constant
Bit rate : 192 Kbps
Channel(s) : 2 channels
Channel positions : L R
Sampling rate : 48.0 KHz
Video delay : 400ms
Stream size : 125 MiB (8%)
Language : Russian













   Похожие торренты   Торрент   Размер 
В этой теме нет новых непрочитанных сообщений. Операция «Ы» и другие приключения Шурика (1965) Blu-Ray

38 | 19

20.05 ГБ

В этой теме нет новых непрочитанных сообщений. Операция «Ы» и другие приключения Шурика (1965) BDRip | КПК от ImperiaFilm

58 | 1

323.23 МБ

В этой теме нет новых непрочитанных сообщений. Операция «Ы» и другие приключения Шурика (1965) HDRip от Scarabey

1598 | 80

1.44 ГБ

В этой теме нет новых непрочитанных сообщений. Операция «Ы» и другие приключения Шурика (1965) BDRip от HQ-ViDEO

1212 | 51

1.45 ГБ

В этой теме нет новых непрочитанных сообщений. Операция «Ы» и другие приключения Шурика (1965) BDRip-AVC от MediaClub

29 | 8

1.78 ГБ

В этой теме нет новых непрочитанных сообщений. Операция «Ы» и другие приключения Шурика (1965) BDRip 1080p

166 | 20

7.73 ГБ

В этой теме нет новых непрочитанных сообщений. Операция «Ы» и другие приключения Шурика (1965) BDRip 1080p

466 | 34

4.37 ГБ




Вы не можете начинать темы
Вы не можете отвечать на сообщения
Вы не можете редактировать свои сообщения
Вы не можете удалять свои сообщения
Вы не можете добавлять вложения

Перейти:  
Для Мосгорсуда, Роскомнадзора и рекламодателей: mosgorsud-torrent[собачка]yandex.ru
 Вход
ppkBB3cker v.2 © 2008-2014 @ PPK
[ Time : 0.035s | 16 Queries | GZIP : Off ]

cron