img image001 image001 image001 image001 image001 image001 image001 image001 image001 image001 image001 image001 image001 image001 image001

Planets Sun Sun Sun
Статистика раздачи
Автор: Снежана | Размер: 1.44 ГБ | Добавлен: 24 июл 2013
Раздают: 355    Качают: 10
Скачать торрент
Скачать торрент
Описание торрента

СообщениеДобавлено: 24 июл 2013 

Барышня-крестьянка /1995/ DVDRip-AVC



Информация о фильме:

Елена Корикова получила приз за лучшую женскую роль на кинофестивале "Киношок" в 1996 году.


Название: Барышня-крестьянка
Оригинальное название: The Aristocratic Peasant Girl
Год выхода: 1995
Жанр: Мелодрама

Режиссер: Алексей Сахаров.
Сценарий: Алексей Сахаров, Александр Житинский.

В ролях: Юрий Воробьев, Светлана Аманова, Наталья Гвоздикова, Евгений Жариков, Вадим Захарченко, Леонид Куравлев, Василий Лановой, Раиса Рязанова, Ариадна Шенгелая, Екатерина Редникова, Елена Корикова, Дмитрий Щербина, Владимир Епископосян, Анатолий Веденкин, Юрий Мартынов, Вадим Вильский, Марина Кондратьева, Станислав Дужников, Валентин Голубенко, Алексей Шадхин, Инна Выходцева, Елена Котихина.

Описание: По мотивам одноименной повести А.С. Пушкина. Барышня Лизонька очень хочет познакомиться с молодым соседом Алексеем Берестовым, но вражда между их отцами делает это затруднительным. Тогда изобретательная девушка переодевается крестьянкой и отправляется в лес, где Алексей любит охотиться...

Страна:
Выпущено: Мосфильм / Киностудия "РИТМ"
Продолжительность: 01:45:47
Перевод: Не требуется



Качество: DVDRip-AVC (Исходник DVD5)
Формат: AVC /Advanced Video Coding/
Контейнер: MKV /Matroska Multimedia Container/
Видео кодек: H264
Аудио кодек: AC3
Видео: 704x528 (4:3), 25.000 fps, 1284 Kbps, 0.133 bit/pixel.
Аудио 1: 48.0 KHz, AC3, 6 channels, 448 Kbps.
Аудио 2: 48.0 KHz, AC3, 1 channel, 224 Kbps.
Субтитры: Нет

Video
ID : 1
Format : AVC
Format/Info : Advanced Video Codec
Format profile : Main@L4.0
Format settings, CABAC : Yes
Format settings, ReFrames : 2 frames
Muxing mode : Container profile=Unknown@4.0
Codec ID : V_MPEG4/ISO/AVC
Duration : 1h 45mn
Bit rate : 1 240 Kbps
Nominal bit rate : 1 284 Kbps
Width : 704 pixels
Height : 528 pixels
Display aspect ratio : 4:3
Frame rate : 25.000 fps
Resolution : 8 bits
Colorimetry : 4:2:0
Scan type : Progressive
Bits/(Pixel*Frame) : 0.133
Stream size : 939 MiB (64%)
Title : Барышня-крестьянка (1995) DVD5
Writing library : x264 core 66 r1092 60f4cd8
Encoding settings : cabac=1 / ref=1 / deblock=0:0:0 / analyse=0x1:0x111 / me=dia / subme=2 / psy_rd=0.0:0.0 / mixed_ref=0 / me_range=8 / chroma_me=0 / trellis=0 / 8x8dct=0 / cqm=0 / deadzone=21,11 / chroma_qp_offset=0 / threads=3 / nr=0 / decimate=1 / mbaff=0 / bframes=2 / b_pyramid=0 / b_adapt=0 / b_bias=0 / direct=1 / wpredb=0 / keyint=250 / keyint_min=25 / scenecut=40(pre) / rc=cbr / bitrate=1284 / ratetol=1.0 / qcomp=0.60 / qpmin=10 / qpmax=51 / qpstep=4 / vbv_maxrate=25000 / vbv_bufsize=14000 / ip_ratio=1.40 / pb_ratio=1.30 / aq=1:1.00

Audio #1
ID : 2
Format : AC-3
Format/Info : Audio Coding 3
Codec ID : A_AC3
Duration : 1h 45mn
Bit rate mode : Constant
Bit rate : 448 Kbps
Channel(s) : 6 channels
Channel positions : Front: L C R, Surround: L R, LFE
Sampling rate : 48.0 KHz
Video delay : 1s 244ms
Stream size : 339 MiB (23%)
Language : Russian

Audio #2
ID : 3
Format : AC-3
Format/Info : Audio Coding 3
Codec ID : A_AC3
Duration : 1h 45mn
Bit rate mode : Constant
Bit rate : 224 Kbps
Channel(s) : 1 channel
Channel positions : C
Sampling rate : 48.0 KHz
Video delay : 1s 243ms
Stream size : 170 MiB (11%)
Language : Russian




















   Похожие торренты   Торрент   Размер 
В этой теме нет новых непрочитанных сообщений. Барышня-крестьянка (1995) DVDRip от SergV

161 | 5

1.76 ГБ

В этой теме нет новых непрочитанных сообщений. Барышня-крестьянка (1995) BDRemux от DONOR1967

0 | 13

16.32 ГБ

В этой теме нет новых непрочитанных сообщений. Барышня-крестьянка (1995) BDRip-AVC | iPad

56 | 4

1.83 ГБ

В этой теме нет новых непрочитанных сообщений. Барышня-крестьянка (1995) DVDRemux | Реставрация

11 | 10

3.29 ГБ

В этой теме нет новых непрочитанных сообщений. Барышня-крестьянка (1995) BDRip от HELLYWOOD

33 | 7

2.05 ГБ

В этой теме нет новых непрочитанных сообщений. Барышня-крестьянка (1995) BDRip от HQCLUB

171 | 30

2 ГБ

В этой теме нет новых непрочитанных сообщений. Барышня-крестьянка (1995) Blu-ray 1080p от Youtracker | Лицензия

10 | 10

22.97 ГБ




Вы не можете начинать темы
Вы не можете отвечать на сообщения
Вы не можете редактировать свои сообщения
Вы не можете удалять свои сообщения
Вы не можете добавлять вложения

Перейти:  
Для Мосгорсуда, Роскомнадзора и рекламодателей: mosgorsud-torrent[собачка]yandex.ru
 Вход
ppkBB3cker v.2 © 2008-2014 @ PPK
[ Time : 0.022s | 14 Queries | GZIP : On ]

Торрент трекер RUTOR.IN, Не можете зайти на rutor.org? Какой новый адрес рутор? Какое зеркало рутор? Не работает rutor.org и зеркала? Тогда наш торрент специально для вас. Rutor.in неофициальное зеркало rutor. В случае если у Вас заблокирован rutor или вдруг Вы не можете на него зайти, то Вы без труда сможете скачать бесплатно и без рекламы последние новинки кино, игр, сериалов и прочего у нас, на Rutor.in. Не нужно использовать прокси, чтобы зайти на рутор, достаточно воспользоваться нашим ресурсом. Все новые фильмы, игры, сериалы, книги и музыка за 2013 и 2014 годы через торрент бесплатно. Скачивайте фильмы в хорошем качестве, игры для пк, xbox, playstation без регистрации. У нас вы найдете новые Зарубежные сериалы и Русские сериалы 2013, 2014, 2015 годов. Оставайтесь с нами, качайте любимые фильмы, игры, сериалы, книги и музыку.