img image001 image001 image001 image001 image001 image001 image001 image001 image001 image001 image001 image001 image001 image001 image001

Planets Sun Sun Sun
Статистика раздачи
Автор: Снежана | Размер: 1.37 ГБ | Добавлен: 23 июл 2013
Раздают: 66    Качают: 8
Скачать торрент
Скачать торрент
Описание торрента

СообщениеДобавлено: 23 июл 2013 

Черная Молния



Год выпуска: 2009
Страна: Россия
Жанр: фантастика, боевик, комедия, мелодрама, приключения
Продолжительность: 01:46:08

Режиссер: Александр Войтинский, Дмитрий Киселев

В ролях: Григорий Добрыгин, Иван Жидков, Виктор Вержбицкий, Сергей Гармаш, Валерий Золотухин, Екатерина Вилкова, Екатерина Старшова, Михаил Ефремов, Игорь Савочкин, Андрей Назимов.

Описание: Действие картины разворачивается в наши дни, где главный герой, двадцатилетний Дима Майков, получает в подарок от отца старенькую «Волгу-21» и внезапно обнаруживает, что его машина летает, как настоящий истребитель. Герой бесцельно парит над столичными пробками и беззаботно наслаждается полетами, пока однажды беда не заставляет его по-другому взглянуть на мир.
Теперь ему предстоит встать на защиту тех, кем он дорожит, и сразиться со Злом в небе над новогодней Москвой.

Качество: DVDRip
Формат: AVI
Видео кодек: XviD
Аудио кодек: AC3
Видео: 720x304 (2.37:1), 25 fps, XviD build 50 ~1386 kbps avg, 0.25 bit/pixel
Аудио: 48 kHz, AC3 Dolby Digital, 3/2 (L,C,R,l,r) + LFE ch, ~448.00 kbps avg






General
Complete name : Черная молния.2009 DVDRip.avi
Format : AVI
Format/Info : Audio Video Interleave
File size : 1.37 GiB
Duration : 1h 46mn
Overall bit rate : 1 845 Kbps
Movie name : Chernaja molnija (2009)
Director : ELEKTRI4KA
Writing application : VirtualDubMod 1.5.4.1 (build 2178/release)
Copyright : http://uniongang.ru/

Video
ID : 0
Format : MPEG-4 Visual
Format profile : Advanced Simple@L5
Format settings, BVOP : Yes
Format settings, QPel : No
Format settings, GMC : No warppoints
Format settings, Matrix : Custom
Codec ID : XVID
Codec ID/Hint : XviD
Duration : 1h 46mn
Bit rate : 1 387 Kbps
Width : 720 pixels
Height : 304 pixels
Display aspect ratio : 2.35:1
Frame rate : 25.000 fps
Resolution : 8 bits
Colorimetry : 4:2:0
Scan type : Progressive
Bits/(Pixel*Frame) : 0.253
Stream size : 1.03 GiB (75%)
Writing library : XviD 1.2.1 (UTC 2008-12-04)

Audio
ID : 1
Format : AC-3
Format/Info : Audio Coding 3
Codec ID : 2000
Duration : 1h 46mn
Bit rate mode : Constant
Bit rate : 448 Kbps
Channel(s) : 6 channels
Channel positions : Front: L C R, Surround: L R, LFE
Sampling rate : 48.0 KHz
Stream size : 340 MiB (24%)
Alignment : Split accross interleaves
Interleave, duration : 40 ms (1.00 video frame)
Interleave, preload duration : 500 ms



   Похожие торренты   Торрент   Размер 
В этой теме нет новых непрочитанных сообщений. Черная молния (2009) DVDRip

1 | 2

1.37 ГБ

В этой теме нет новых непрочитанных сообщений. Чёрная молния (2009) DVDRip

0 | 4

701.15 МБ

В этой теме нет новых непрочитанных сообщений. OST. Черная молния (2009) MP3

0 | 5

55.37 МБ

В этой теме нет новых непрочитанных сообщений. Черная молния (2009) BDRip от RP4 CHG

0 | 2

701.39 МБ

В этой теме нет новых непрочитанных сообщений. Черная молния (2009) DVD5

0 | 2

4.37 ГБ

В этой теме нет новых непрочитанных сообщений. Черная молния (2009) DVD9

0 | 2

7.54 ГБ

В этой теме нет новых непрочитанных сообщений. Черная молния (2009) BDRip by NB

5 | 7

1.46 ГБ




Вы не можете начинать темы
Вы не можете отвечать на сообщения
Вы не можете редактировать свои сообщения
Вы не можете удалять свои сообщения
Вы не можете добавлять вложения

Перейти:  
Для Мосгорсуда, Роскомнадзора и рекламодателей: mosgorsud-torrent[собачка]yandex.ru
 Вход
ppkBB3cker v.2 © 2008-2014 @ PPK
[ Time : 0.067s | 15 Queries | GZIP : Off ]

Торрент трекер RUTOR.IN, Не можете зайти на rutor.org? Какой новый адрес рутор? Какое зеркало рутор? Не работает rutor.org и зеркала? Тогда наш торрент специально для вас. Rutor.in неофициальное зеркало rutor. В случае если у Вас заблокирован rutor или вдруг Вы не можете на него зайти, то Вы без труда сможете скачать бесплатно и без рекламы последние новинки кино, игр, сериалов и прочего у нас, на Rutor.in. Не нужно использовать прокси, чтобы зайти на рутор, достаточно воспользоваться нашим ресурсом. Все новые фильмы, игры, сериалы, книги и музыка за 2013 и 2014 годы через торрент бесплатно. Скачивайте фильмы в хорошем качестве, игры для пк, xbox, playstation без регистрации. У нас вы найдете новые Зарубежные сериалы и Русские сериалы 2013, 2014, 2015 годов. Оставайтесь с нами, качайте любимые фильмы, игры, сериалы, книги и музыку.
cron