img image001 image001 image001 image001 image001 image001 image001 image001 image001 image001 image001 image001 image001 image001 image001

Planets Sun Sun Sun

COVID-19 - Последняя информация о коронавирусе на сайте Минздрава


Статистика раздачи
Автор: Снежана | Размер: 1.37 ГБ | Добавлен: 23 июл 2013
Раздают: 66    Качают: 5
Скачать торрент
Скачать торрент
Описание торрента

СообщениеДобавлено: 23 июл 2013 

Черная Молния



Год выпуска: 2009
Страна: Россия
Жанр: фантастика, боевик, комедия, мелодрама, приключения
Продолжительность: 01:46:08

Режиссер: Александр Войтинский, Дмитрий Киселев

В ролях: Григорий Добрыгин, Иван Жидков, Виктор Вержбицкий, Сергей Гармаш, Валерий Золотухин, Екатерина Вилкова, Екатерина Старшова, Михаил Ефремов, Игорь Савочкин, Андрей Назимов.

Описание: Действие картины разворачивается в наши дни, где главный герой, двадцатилетний Дима Майков, получает в подарок от отца старенькую «Волгу-21» и внезапно обнаруживает, что его машина летает, как настоящий истребитель. Герой бесцельно парит над столичными пробками и беззаботно наслаждается полетами, пока однажды беда не заставляет его по-другому взглянуть на мир.
Теперь ему предстоит встать на защиту тех, кем он дорожит, и сразиться со Злом в небе над новогодней Москвой.

Качество: DVDRip
Формат: AVI
Видео кодек: XviD
Аудио кодек: AC3
Видео: 720x304 (2.37:1), 25 fps, XviD build 50 ~1386 kbps avg, 0.25 bit/pixel
Аудио: 48 kHz, AC3 Dolby Digital, 3/2 (L,C,R,l,r) + LFE ch, ~448.00 kbps avg






General
Complete name : Черная молния.2009 DVDRip.avi
Format : AVI
Format/Info : Audio Video Interleave
File size : 1.37 GiB
Duration : 1h 46mn
Overall bit rate : 1 845 Kbps
Movie name : Chernaja molnija (2009)
Director : ELEKTRI4KA
Writing application : VirtualDubMod 1.5.4.1 (build 2178/release)
Copyright : http://uniongang.ru/

Video
ID : 0
Format : MPEG-4 Visual
Format profile : Advanced Simple@L5
Format settings, BVOP : Yes
Format settings, QPel : No
Format settings, GMC : No warppoints
Format settings, Matrix : Custom
Codec ID : XVID
Codec ID/Hint : XviD
Duration : 1h 46mn
Bit rate : 1 387 Kbps
Width : 720 pixels
Height : 304 pixels
Display aspect ratio : 2.35:1
Frame rate : 25.000 fps
Resolution : 8 bits
Colorimetry : 4:2:0
Scan type : Progressive
Bits/(Pixel*Frame) : 0.253
Stream size : 1.03 GiB (75%)
Writing library : XviD 1.2.1 (UTC 2008-12-04)

Audio
ID : 1
Format : AC-3
Format/Info : Audio Coding 3
Codec ID : 2000
Duration : 1h 46mn
Bit rate mode : Constant
Bit rate : 448 Kbps
Channel(s) : 6 channels
Channel positions : Front: L C R, Surround: L R, LFE
Sampling rate : 48.0 KHz
Stream size : 340 MiB (24%)
Alignment : Split accross interleaves
Interleave, duration : 40 ms (1.00 video frame)
Interleave, preload duration : 500 ms

   Похожие торренты   Торрент   Размер 
В этой теме нет новых непрочитанных сообщений. Черная молния (2009) BDRemux 1080p

4 | 1

29.58 ГБ

В этой теме нет новых непрочитанных сообщений. Черная молния (2009) BDRip-AVC от ExKinoRay

20 | 2

744.78 МБ

В этой теме нет новых непрочитанных сообщений. Черная молния (Александр Войтинский, Дмитрий Киселёв) [2009, фантастика, боевик, комедия, приключения, HDRip] / Фантастика

0 | 0

748.6 МБ

В этой теме нет новых непрочитанных сообщений. Черная молния / Black lightning (2010) PC | RePack

24 | 2

383.48 МБ

В этой теме нет новых непрочитанных сообщений. Черная молния / Black Lightning [01x01 из 13] (2017) WEBRip | IdeaFilm

0 | 0

669.98 МБ

В этой теме нет новых непрочитанных сообщений. Черная молния / Black Lightning [01x01-02 из 13] (2018) WEBRip | IdeaFilm

0 | 0

1.31 ГБ

В этой теме нет новых непрочитанных сообщений. Черная молния / Black Lightning [01x01-03 из 13] (2018) HDTVRip | GostFilm

6 | 0

1.35 ГБ




Вы не можете начинать темы
Вы не можете отвечать на сообщения
Вы не можете редактировать свои сообщения
Вы не можете удалять свои сообщения
Вы не можете добавлять вложения

Перейти:  
Контактная информация: rstracker[пёсик]yandex.ru
 Вход
ppkBB3cker v.2 © 2008-2014 @ PPK
[ Time : 0.029s | 17 Queries | GZIP : Off ]

cron