img image001 image001 image001 image001 image001 image001 image001 image001 image001 image001 image001 image001 image001 image001 image001

Planets Sun Sun Sun
Статистика раздачи
Автор: Снежана | Размер: 1.46 ГБ | Добавлен: 24 июл 2013
Раздают: 51    Качают: 15
Скачать торрент
Скачать торрент
Описание торрента

СообщениеДобавлено: 24 июл 2013 

#77

Информация о фильме
Название: Мы из будущего 2
Оригинальное название: Мы из будущего 2
Год выхода: 2010
Жанр: фантастика, боевик, приключения, военный, история
Режиссер: Александр Самохвалов, Борис Ростов
В ролях: Игорь Петренко, Екатерина Климова, Владимир Яглыч, Алексей Барабаш,Дмитрий Ступка, Иван Краско, Дмитрий Дячук, Владислав Резник, Семен Белоцерковский, Денис Карасев

О фильме:
Они встретились на поле «реконструкции военных событий» и хотели поиграть в войну. Но война решила поиграть с ними… Герои первой части фильма, Борман и Череп, попадают в 1944 год, и вместе с ними в прошлом оказываются еще двое — молодые украинцы Таран и Серый, «игравшие» в войну на другой стороне. Каждый из них совершит свой подвиг, чтобы вернуться домой и сберечь свое и наше Будущее...


Страна: Россия
Студия: А-1 Кино Видео
Продолжительность: 01:37:20
Перевод: Оригинал

Файл
Кодек: h.264 (MKV)
Качество: DVDRip
Видео: 720х304 (2.35:1), MPEG-4 AVC, ~1699 kbps, 25.000 fps, 0.303 bit/pixel
Звук: AC3, 448 kbps, 48 kHz, 6 (ch)
Субтитры: Русские, на украинскую речь (хард)

Семпл


Format : Matroska
File size : 1.46 GiB
Duration : 1h 37mn
Overall bit rate : 2 148 Kbps
Movie name : My z buduwego 2 (2010) / Encoded by cXn
Encoded date : UTC 2010-03-16 15:11:14
Writing application : mkvmerge v3.2.0 ('Beginnings') built on Feb 12 2010 16:46:17
Writing library : libebml v0.7.9 + libmatroska v0.8.1
Video
ID : 1
Format : AVC
Format/Info : Advanced Video Codec
Format profile : High@L3.1
Format settings, CABAC : Yes
Format settings, ReFrames : 11 frames
Muxing mode : Container profile=Unknown@3.1
Codec ID : V_MPEG4/ISO/AVC
Duration : 1h 37mn
Bit rate : 1 657 Kbps
Nominal bit rate : 1 699 Kbps
Width : 720 pixels
Height : 304 pixels
Display aspect ratio : 2.35:1
Frame rate : 25.000 fps
Resolution : 24 bits
Colorimetry : 4:2:0
Scan type : Progressive
Bits/(Pixel*Frame) : 0.303
Stream size : 1.13 GiB (77%)
Writing library : x264 core 88 r1471 1144615
Encoding settings : cabac=1 / ref=11 / deblock=1:0:0 / analyse=0x3:0x133 / me=umh / subme=9 / psy=1 / psy_rd=1.00:0.00 / mixed_ref=1 / me_range=24 / chroma_me=1 / trellis=1 / 8x8dct=1 / cqm=2 / deadzone=21,11 / fast_pskip=0 / chroma_qp_offset=-2 / threads=3 / sliced_threads=0 / nr=0 / decimate=1 / mbaff=0 / constrained_intra=0 / bframes=3 / b_pyramid=2 / b_adapt=1 / b_bias=0 / direct=3 / wpredb=1 / wpredp=2 / keyint=250 / keyint_min=25 / scenecut=40 / intra_refresh=0 / rc_lookahead=40 / rc=2pass / mbtree=1 / bitrate=1699 / ratetol=1.0 / qcomp=0.60 / qpmin=10 / qpmax=51 / qpstep=4 / cplxblur=20.0 / qblur=0.5 / ip_ratio=1.40 / aq=1:1.00
Language : English

Audio
ID : 2
Format : AC-3
Format/Info : Audio Coding 3
Codec ID : A_AC3
Duration : 1h 37mn
Bit rate mode : Constant
Bit rate : 448 Kbps
Channel(s) : 6 channels
Channel positions : Front: L C R, Surround: L R, LFE
Sampling rate : 48.0 KHz
Stream size : 312 MiB (21%)
Language : Russian



   Похожие торренты   Торрент   Размер 
В этой теме нет новых непрочитанных сообщений. BBC: Дикий мир будущего / Прогулки с монстрами будущего / BBC: The Future is Wild (2003) DVDRip by GENADIY

14 | 12

4.37 ГБ

В этой теме нет новых непрочитанных сообщений. Мы из будущего 2 (2010) DVDRip | КПК

81 | 12

226.28 МБ

В этой теме нет новых непрочитанных сообщений. Мы из будущего 2 / Мы из будущего 2 (2010) BD HDClub

0 | 3

23.08 ГБ

В этой теме нет новых непрочитанных сообщений. Мы из будущего 2 / Мы из будущего 2 (2010) BDRip

163 | 9

703.16 МБ

В этой теме нет новых непрочитанных сообщений. Мы из будущего 2 (2010) DVD5

36 | 7

4.35 ГБ

В этой теме нет новых непрочитанных сообщений. Мы из будущего 2 (2010) DVD9

0 | 3

7.79 ГБ

В этой теме нет новых непрочитанных сообщений. Мы из будущего 2 (2010) BDRip от HELLYWOOD

622 | 50

1.46 ГБ




Вы не можете начинать темы
Вы не можете отвечать на сообщения
Вы не можете редактировать свои сообщения
Вы не можете удалять свои сообщения
Вы не можете добавлять вложения

Перейти:  
Для Мосгорсуда, Роскомнадзора и рекламодателей: mosgorsud-torrent[собачка]yandex.ru
 Вход
ppkBB3cker v.2 © 2008-2014 @ PPK
[ Time : 0.023s | 15 Queries | GZIP : Off ]

Торрент трекер RUTOR.IN, Не можете зайти на rutor.org? Какой новый адрес рутор? Какое зеркало рутор? Не работает rutor.org и зеркала? Тогда наш торрент специально для вас. Rutor.in неофициальное зеркало rutor. В случае если у Вас заблокирован rutor или вдруг Вы не можете на него зайти, то Вы без труда сможете скачать бесплатно и без рекламы последние новинки кино, игр, сериалов и прочего у нас, на Rutor.in. Не нужно использовать прокси, чтобы зайти на рутор, достаточно воспользоваться нашим ресурсом. Все новые фильмы, игры, сериалы, книги и музыка за 2013 и 2014 годы через торрент бесплатно. Скачивайте фильмы в хорошем качестве, игры для пк, xbox, playstation без регистрации. У нас вы найдете новые Зарубежные сериалы и Русские сериалы 2013, 2014, 2015 годов. Оставайтесь с нами, качайте любимые фильмы, игры, сериалы, книги и музыку.