img image001 image001 image001 image001 image001 image001 image001 image001 image001 image001 image001 image001 image001 image001 image001

Planets Sun Sun Sun

COVID-19 - Последняя информация о коронавирусе на сайте Минздрава


Статистика раздачи
Автор: Снежана | Размер: 7.81 ГБ | Добавлен: 23 июл 2013
Раздают: 3    Качают: 4
Скачать торрент
Скачать торрент
Описание торрента

СообщениеДобавлено: 23 июл 2013 

#77

Информация о фильме
Название: Любовь в большом городе 2
Оригинальное название: Любовь в большом городе 2
Год выхода: 2010
Режиссер: Марюс Вайсберг
В ролях: Вера Брежнева, Алексей Чадов, Анастасия Задорожная, Светлана Ходченкова, Вилле Хаапасало, Владимир Зеленский, Филипп Киркоров, Павел Воля, Леонид Ярмольник, Игорь Верник

О фильме:
Дополнительно: Фильм о фильме, Фото со съемок, Видеоклипы Филиппа Киркорова и Насти Задорожной
Игорь приглашает Сауну и Артема с возлюбленными на ранчо к отцу. Ребята смогут отдохнуть, а Игорь наконец-то познакомит Настю с будущим тестем. Друзья пакуют чемоданы. В самолете они знакомятся с парочкой американцев, которые рассказывают им о неком монастыре на окраине города, где будут жить наши герои, святом месте, согласно древнему преданию помогающем в борьбе с бесплодием. Игорь, Артем и Сауна единодушны — к отцовству они еще не готовы. Но на экскурсию в монастырь все-таки едут. Несмотря на предупреждение монаха, друзья прикасаются к «идолу», и теперь они обречены при первом же половом акте зачать ребенка. Они озадачены — стоит верить предрассудкам или нет? На всякий случай, они решают временно воздержаться от секса. Девушки, узнав о причине такого странного поведения любимых, обижаются и уезжают. Оставшись одни, ребята решают оттянуться по полной, но тут на их пути снова появляется Святой Валентин. Он возмущен: как они могли не воспользоваться таким благословением? Рождается новое заклятие. Тот из троих кто окажется первым в постели с женщиной — станет отцом. Остальные смогут иметь детей лишь через двадцать лет. О таком повороте событий никто и помыслить не мог. Все трое внезапно осознают, что готовы к отцовству… Приключения начинаются.
Страна: Россия, Leopolis
Продолжительность: 01:29:07
Перевод: Русский

Файл
Кодек: DVD
Качество: DVD-9
Видео: PAL 16:9 (720x576) VBR
Звук: Русский (Dolby AC3, 6 ch)

Video: MPEG2 Video 720x576 (16:9) 25.00fps 9000kbps [Video]
Audio: Dolby AC3 48000Hz 6ch 448kbps [Audio]
Subtitle [Subtitle]

General
Complete name : E:Трекер torrents.ruLjubov.v.bolshom.gorode.2.2010.DVD9VIDEO_TSVTS_01_1.VOB
Format : MPEG-PS
File size : 1 024 MiB
Duration : 16mn 28s
Overall bit rate : 8 685 Kbps

Video
ID : 224 (0xE0)
Format : MPEG Video
Format version : Version 2
Format profile : Main@Main
Format settings, BVOP : Yes
Format settings, Matrix : Default
Duration : 16mn 28s
Bit rate mode : Variable
Bit rate : 7 892 Kbps
Nominal bit rate : 9 000 Kbps
Width : 720 pixels
Height : 576 pixels
Display aspect ratio : 16:9
Frame rate : 25.000 fps
Standard : PAL
Resolution : 8 bits
Colorimetry : 4:2:0
Scan type : Interlaced
Scan order : Bottom Field First
Bits/(Pixel*Frame) : 0.761
Stream size : 930 MiB (91%)

Audio
ID : 128 (0x80)
Format : AC-3
Format/Info : Audio Coding 3
Duration : 16mn 28s
Bit rate mode : Constant
Bit rate : 448 Kbps
Channel(s) : 6 channels
Channel positions : Front: L C R, Surround: L R, LFE
Sampling rate : 48.0 KHz
Stream size : 52.8 MiB (5%)


   Похожие торренты   Торрент   Размер 
В этой теме нет новых непрочитанных сообщений. Познавательный фильм (Любовь в большом городе) [2019, документальный, научно-познавательный, WEBRip]

1 | 0

262.81 МБ

В этой теме нет новых непрочитанных сообщений. Селеста в большом городе / Celeste in the City (2004) SATRip | P

22 | 7

1.37 ГБ

В этой теме нет новых непрочитанных сообщений. Ночь в большом городе / Night and the City (1992) WEBRip от Koenig | P

4 | 3

1.45 ГБ

В этой теме нет новых непрочитанных сообщений. Познавательный фильм (Агрессия в большом городе) [2019, документальный, научно-познавательный, WEBRip]

0 | 0

264.47 МБ

В этой теме нет новых непрочитанных сообщений. Любовь в городе ангелов (2017) WEB-DLRip

512 | 31

1.37 ГБ

В этой теме нет новых непрочитанных сообщений. Любовь в городе ангелов (2017) WEB-DLRip 1080p от MediaClub

238 | 4

3.04 ГБ

В этой теме нет новых непрочитанных сообщений. Любовь в городе ангелов (2017) WEB-DLRip-AVC от ExKinoRay

77 | 1

744.93 МБ




Вы не можете начинать темы
Вы не можете отвечать на сообщения
Вы не можете редактировать свои сообщения
Вы не можете удалять свои сообщения
Вы не можете добавлять вложения

Перейти:  
Контактная информация: rstracker[пёсик]yandex.ru
 Вход
ppkBB3cker v.2 © 2008-2014 @ PPK
[ Time : 0.029s | 17 Queries | GZIP : Off ]

cron