img image001 image001 image001 image001 image001 image001 image001 image001 image001 image001 image001 image001 image001 image001 image001

Planets Sun Sun Sun
Статистика раздачи
Автор: Снежана | Размер: 7.81 ГБ | Добавлен: 23 июл 2013
Раздают: 3    Качают: 5
Скачать торрент
Скачать торрент
Описание торрента

СообщениеДобавлено: 23 июл 2013 

#77

Информация о фильме
Название: Любовь в большом городе 2
Оригинальное название: Любовь в большом городе 2
Год выхода: 2010
Режиссер: Марюс Вайсберг
В ролях: Вера Брежнева, Алексей Чадов, Анастасия Задорожная, Светлана Ходченкова, Вилле Хаапасало, Владимир Зеленский, Филипп Киркоров, Павел Воля, Леонид Ярмольник, Игорь Верник

О фильме:
Дополнительно: Фильм о фильме, Фото со съемок, Видеоклипы Филиппа Киркорова и Насти Задорожной
Игорь приглашает Сауну и Артема с возлюбленными на ранчо к отцу. Ребята смогут отдохнуть, а Игорь наконец-то познакомит Настю с будущим тестем. Друзья пакуют чемоданы. В самолете они знакомятся с парочкой американцев, которые рассказывают им о неком монастыре на окраине города, где будут жить наши герои, святом месте, согласно древнему преданию помогающем в борьбе с бесплодием. Игорь, Артем и Сауна единодушны — к отцовству они еще не готовы. Но на экскурсию в монастырь все-таки едут. Несмотря на предупреждение монаха, друзья прикасаются к «идолу», и теперь они обречены при первом же половом акте зачать ребенка. Они озадачены — стоит верить предрассудкам или нет? На всякий случай, они решают временно воздержаться от секса. Девушки, узнав о причине такого странного поведения любимых, обижаются и уезжают. Оставшись одни, ребята решают оттянуться по полной, но тут на их пути снова появляется Святой Валентин. Он возмущен: как они могли не воспользоваться таким благословением? Рождается новое заклятие. Тот из троих кто окажется первым в постели с женщиной — станет отцом. Остальные смогут иметь детей лишь через двадцать лет. О таком повороте событий никто и помыслить не мог. Все трое внезапно осознают, что готовы к отцовству… Приключения начинаются.
Страна: Россия, Leopolis
Продолжительность: 01:29:07
Перевод: Русский

Файл
Кодек: DVD
Качество: DVD-9
Видео: PAL 16:9 (720x576) VBR
Звук: Русский (Dolby AC3, 6 ch)

Video: MPEG2 Video 720x576 (16:9) 25.00fps 9000kbps [Video]
Audio: Dolby AC3 48000Hz 6ch 448kbps [Audio]
Subtitle [Subtitle]

General
Complete name : E:Трекер torrents.ruLjubov.v.bolshom.gorode.2.2010.DVD9VIDEO_TSVTS_01_1.VOB
Format : MPEG-PS
File size : 1 024 MiB
Duration : 16mn 28s
Overall bit rate : 8 685 Kbps

Video
ID : 224 (0xE0)
Format : MPEG Video
Format version : Version 2
Format profile : Main@Main
Format settings, BVOP : Yes
Format settings, Matrix : Default
Duration : 16mn 28s
Bit rate mode : Variable
Bit rate : 7 892 Kbps
Nominal bit rate : 9 000 Kbps
Width : 720 pixels
Height : 576 pixels
Display aspect ratio : 16:9
Frame rate : 25.000 fps
Standard : PAL
Resolution : 8 bits
Colorimetry : 4:2:0
Scan type : Interlaced
Scan order : Bottom Field First
Bits/(Pixel*Frame) : 0.761
Stream size : 930 MiB (91%)

Audio
ID : 128 (0x80)
Format : AC-3
Format/Info : Audio Coding 3
Duration : 16mn 28s
Bit rate mode : Constant
Bit rate : 448 Kbps
Channel(s) : 6 channels
Channel positions : Front: L C R, Surround: L R, LFE
Sampling rate : 48.0 KHz
Stream size : 52.8 MiB (5%)




   Похожие торренты   Торрент   Размер 
В этой теме нет новых непрочитанных сообщений. Любовь в большом городе 2 (2010) HDRip | Лицензия

317 | 27

745.49 МБ

В этой теме нет новых непрочитанных сообщений. Любовь в большом городе 2 (2010) BDRip 720p от leonardo 59 | Лицензия

93 | 13

3.92 ГБ

В этой теме нет новых непрочитанных сообщений. Секс в большом городе 2 / Sex and the City 2 (2010) DVD9 | лицензия

13 | 6

6.85 ГБ

В этой теме нет новых непрочитанных сообщений. Любовь в большом городе 2 (2010) DVDRip

234 | 11

699.47 МБ

В этой теме нет новых непрочитанных сообщений. Любовь в большом городе 3 (2014) DVD5 | Лицензия

333 | 18

3.6 ГБ

В этой теме нет новых непрочитанных сообщений. Любовь в большом городе 3 (2014) DVDRip | Лицензия

570 | 23

702.98 МБ

В этой теме нет новых непрочитанных сообщений. Любовь в большом городе 3 (2014) DVDRip | Лицензия

5505 | 161

1.37 ГБ




Вы не можете начинать темы
Вы не можете отвечать на сообщения
Вы не можете редактировать свои сообщения
Вы не можете удалять свои сообщения
Вы не можете добавлять вложения

Перейти:  
Для Мосгорсуда, Роскомнадзора и рекламодателей: mosgorsud-torrent[собачка]yandex.ru
 Вход
ppkBB3cker v.2 © 2008-2014 @ PPK
[ Time : 0.030s | 15 Queries | GZIP : Off ]

Торрент трекер RUTOR.IN, Не можете зайти на rutor.org? Какой новый адрес рутор? Какое зеркало рутор? Не работает rutor.org и зеркала? Тогда наш торрент специально для вас. Rutor.in неофициальное зеркало rutor. В случае если у Вас заблокирован rutor или вдруг Вы не можете на него зайти, то Вы без труда сможете скачать бесплатно и без рекламы последние новинки кино, игр, сериалов и прочего у нас, на Rutor.in. Не нужно использовать прокси, чтобы зайти на рутор, достаточно воспользоваться нашим ресурсом. Все новые фильмы, игры, сериалы, книги и музыка за 2013 и 2014 годы через торрент бесплатно. Скачивайте фильмы в хорошем качестве, игры для пк, xbox, playstation без регистрации. У нас вы найдете новые Зарубежные сериалы и Русские сериалы 2013, 2014, 2015 годов. Оставайтесь с нами, качайте любимые фильмы, игры, сериалы, книги и музыку.
cron