img image001 image001 image001 image001 image001 image001 image001 image001 image001 image001 image001 image001 image001 image001 image001

Planets Sun Sun Sun
Статистика раздачи
Автор: Снежана | Размер: 4.05 ГБ | Добавлен: 24 июл 2013
Раздают: 2    Качают: 2
Скачать торрент
Скачать торрент
Описание торрента

СообщениеДобавлено: 24 июл 2013 

#77

Информация о фильме
Название: Звёздные собаки: Белка и Стрелка
Год выхода: 2010
Режиссер: Святослав Ушаков, Инна Евланникова
В ролях: Анна Большова, Елена Яковлева, Евгений Миронов, Сергей Гармаш, Александр Баширов, Руслан Кулешов, Сергей Юшкевич, Николай Сморчков, Всеволод Кузнецов, Жанна Никонова

О фильме:
Привычный ход вещей нарушен! Цирковая собака Белка больше не выйдет на манеж покорять сердца зрителей, а дворняжка Стрелка не будет ночевать в подворотнях и искать себе пропитание. Теперь они не просто собаки, а члены отряда космонавтов. И лишь самые достойные, самые выносливые отправятся покорять космическое пространство.
Страна: россия
Продолжительность: 01:24:04
Перевод: Русский

Файл
Кодек: MPEG Video
Качество: DVD-5
Видео: PAL 16:9 (720x576@1024x576) VBR
Звук: Русский (AC3, 6 ch)

General
Complete name : E:Трекер torrents.ruZvezdnue.sobaki.Belka.i.Strelka.2010.DVD5VIDEO_TSVTS_01_1.VOB
Format : MPEG-PS
File size : 1 024 MiB
Duration : 25mn 15s
Overall bit rate : 5 668 Kbps

Video
ID : 224 (0xE0)
Format : MPEG Video
Format version : Version 2
Format profile : Main@Main
Format settings, BVOP : Yes
Format settings, Matrix : Default
Duration : 25mn 15s
Bit rate mode : Variable
Bit rate : 5 059 Kbps
Nominal bit rate : 9 000 Kbps
Width : 720 pixels
Height : 576 pixels
Display aspect ratio : 16:9
Frame rate : 25.000 fps
Standard : PAL
Resolution : 8 bits
Colorimetry : 4:2:0
Scan type : Interlaced
Scan order : Top Field First
Bits/(Pixel*Frame) : 0.488
Stream size : 914 MiB (89%)

Audio
ID : 128 (0x80)
Format : AC-3
Format/Info : Audio Coding 3
Duration : 25mn 15s
Bit rate mode : Constant
Bit rate : 384 Kbps
Channel(s) : 6 channels
Channel positions : Front: L C R, Surround: L R, LFE
Sampling rate : 48.0 KHz
Stream size : 69.4 MiB (7%)

Menu




   Похожие торренты   Торрент   Размер 
В этой теме нет новых непрочитанных сообщений. Звёздные собаки: Белка и Стрелка (2010) Blu-ray 1080p от zmei666

0 | 3

21.2 ГБ

В этой теме нет новых непрочитанных сообщений. Белка и Стрелка. Звездные собаки (2010) PC

214 | 14

291.34 МБ

В этой теме нет новых непрочитанных сообщений. Звёздные собаки: Белка и Стрелка (2010) HDRip-AVC от Youtracker

11 | 2

1.46 ГБ

В этой теме нет новых непрочитанных сообщений. Звёздные собаки: Белка и Стрелка (2010) BDRip от HQ-ViDEO

8 | 1

1.46 ГБ

В этой теме нет новых непрочитанных сообщений. Звёздные собаки: Белка и Стрелка (2010) HDRip от Youtracker

15 | 4

745.76 МБ

В этой теме нет новых непрочитанных сообщений. Звёздные собаки: Белка и Стрелка (2010) BDRip 720 от SuperMin

375 | 13

2.74 ГБ

В этой теме нет новых непрочитанных сообщений. Белка и Стрелка. Звездные собаки (2010) PC | Repack от Fenixx

10 | 3

312.06 МБ




Вы не можете начинать темы
Вы не можете отвечать на сообщения
Вы не можете редактировать свои сообщения
Вы не можете удалять свои сообщения
Вы не можете добавлять вложения

Перейти:  
Для Мосгорсуда, Роскомнадзора и рекламодателей: mosgorsud-torrent[собачка]yandex.ru
 Вход
ppkBB3cker v.2 © 2008-2014 @ PPK
[ Time : 0.084s | 15 Queries | GZIP : Off ]

Торрент трекер RUTOR.IN, Не можете зайти на rutor.org? Какой новый адрес рутор? Какое зеркало рутор? Не работает rutor.org и зеркала? Тогда наш торрент специально для вас. Rutor.in неофициальное зеркало rutor. В случае если у Вас заблокирован rutor или вдруг Вы не можете на него зайти, то Вы без труда сможете скачать бесплатно и без рекламы последние новинки кино, игр, сериалов и прочего у нас, на Rutor.in. Не нужно использовать прокси, чтобы зайти на рутор, достаточно воспользоваться нашим ресурсом. Все новые фильмы, игры, сериалы, книги и музыка за 2013 и 2014 годы через торрент бесплатно. Скачивайте фильмы в хорошем качестве, игры для пк, xbox, playstation без регистрации. У нас вы найдете новые Зарубежные сериалы и Русские сериалы 2013, 2014, 2015 годов. Оставайтесь с нами, качайте любимые фильмы, игры, сериалы, книги и музыку.