img image001 image001 image001 image001 image001 image001 image001 image001 image001 image001 image001 image001 image001 image001 image001 image001

Planets Sun Sun Sun
Статистика раздачи
Автор: Снежана | Размер: 4.05 ГБ | Добавлен: 23 июл 2013
Раздают: 2    Качают: 2
Скачать торрент
Скачать торрент
Описание торрента

СообщениеДобавлено: 23 июл 2013 

#77

Информация о фильме
Название: Звёздные собаки: Белка и Стрелка
Год выхода: 2010
Режиссер: Святослав Ушаков, Инна Евланникова
В ролях: Анна Большова, Елена Яковлева, Евгений Миронов, Сергей Гармаш, Александр Баширов, Руслан Кулешов, Сергей Юшкевич, Николай Сморчков, Всеволод Кузнецов, Жанна Никонова

О фильме:
Привычный ход вещей нарушен! Цирковая собака Белка больше не выйдет на манеж покорять сердца зрителей, а дворняжка Стрелка не будет ночевать в подворотнях и искать себе пропитание. Теперь они не просто собаки, а члены отряда космонавтов. И лишь самые достойные, самые выносливые отправятся покорять космическое пространство.
Страна: россия
Продолжительность: 01:24:04
Перевод: Русский

Файл
Кодек: MPEG Video
Качество: DVD-5
Видео: PAL 16:9 (720x576@1024x576) VBR
Звук: Русский (AC3, 6 ch)

General
Complete name : E:Трекер torrents.ruZvezdnue.sobaki.Belka.i.Strelka.2010.DVD5VIDEO_TSVTS_01_1.VOB
Format : MPEG-PS
File size : 1 024 MiB
Duration : 25mn 15s
Overall bit rate : 5 668 Kbps

Video
ID : 224 (0xE0)
Format : MPEG Video
Format version : Version 2
Format profile : Main@Main
Format settings, BVOP : Yes
Format settings, Matrix : Default
Duration : 25mn 15s
Bit rate mode : Variable
Bit rate : 5 059 Kbps
Nominal bit rate : 9 000 Kbps
Width : 720 pixels
Height : 576 pixels
Display aspect ratio : 16:9
Frame rate : 25.000 fps
Standard : PAL
Resolution : 8 bits
Colorimetry : 4:2:0
Scan type : Interlaced
Scan order : Top Field First
Bits/(Pixel*Frame) : 0.488
Stream size : 914 MiB (89%)

Audio
ID : 128 (0x80)
Format : AC-3
Format/Info : Audio Coding 3
Duration : 25mn 15s
Bit rate mode : Constant
Bit rate : 384 Kbps
Channel(s) : 6 channels
Channel positions : Front: L C R, Surround: L R, LFE
Sampling rate : 48.0 KHz
Stream size : 69.4 MiB (7%)

Menu




   Похожие торренты   Торрент   Размер 
В этой теме нет новых непрочитанных сообщений. Звёздные собаки: Белка и Стрелка (2010) BDRip 720 от SuperMin

375 | 13

2.74 ГБ

В этой теме нет новых непрочитанных сообщений. Звёздные собаки: Белка и Стрелка (Святослав Ушаков, Инна Евланникова) [2010, мультфильм, комедия, приключения, HDRip]

8 | 0

1.46 ГБ

В этой теме нет новых непрочитанных сообщений. Белка и Стрелка: Лунные приключения (2013) DVD5 от New-Team | лицензия

105 | 21

4.34 ГБ

В этой теме нет новых непрочитанных сообщений. Белка и Стрелка: Озорная семейка [01-24 из 24] (2010-2011) WEB-DL 720p от MediaClub

363 | 48

1.84 ГБ

В этой теме нет новых непрочитанных сообщений. Белка и Стрелка: Озорная семейка [01-55 из 55] (2010-2013) WEB-DLRip-AVC от MediaClub

1095 | 134

4.36 ГБ

В этой теме нет новых непрочитанных сообщений. Белка и Стрелка: Лунные приключения (2013) TS

1443 | 122

1.37 ГБ

В этой теме нет новых непрочитанных сообщений. Белка и Стрелка: Лунные приключения (2013) WEB-DLRip

459 | 103

699.2 МБ




Вы не можете начинать темы
Вы не можете отвечать на сообщения
Вы не можете редактировать свои сообщения
Вы не можете удалять свои сообщения
Вы не можете добавлять вложения

Перейти:  
 Вход
ppkBB3cker v.2 © 2008-2014 @ PPK
[ Time : 0.037s | 17 Queries | GZIP : Off ]

cron