img image001 image001 image001 image001 image001 image001 image001 image001 image001 image001 image001 image001 image001 image001 image001

Planets Sun Sun Sun
Статистика раздачи
Автор: Снежана | Размер: 1.06 ГБ | Добавлен: 24 июл 2013
Раздают: 9    Качают: 3
Скачать торрент
Скачать торрент
Описание торрента

СообщениеДобавлено: 24 июл 2013 

#77
______________________________________________________________________
Информация о фильме:

Название: Упырь
Оригинальное название: Upyr
Год выхода: 1997
Жанр: Ужасы, Мистика
______________________________________________________________________

Режиссер: Сергей Винокуров
Оператор: Валерий Мартынов
Композитор: Tequilajazz
______________________________________________________________________

В ролях: Алексей Серебряков, Николай Лавров, Игорь Шибанов, Людмила Курепова, Сергей Русскин, Вадим Лобанов, Владимир Богданов, Георгий Штиль, Анатолий Хропов, Артем Цыпин, Александр Горбанев, Леонид Мазуров, Сергей Шульга, Виктор Романов, Андрей Грязнов, Александр Шульга, Алексей Ярошенко, Игорь Яковлев и другие...
______________________________________________________________________

Описание: Когда ты встаешь утром и не видишь своего отражения… Когда главный преступный авторитет города дрожит от страха и отвечает выстрелом на звонок в дверь… Когда кровь пьется, как томатный сок… Знай. В городе появился УПЫРЬ. Тогда пули ничего не решают и в дело идет осиновый кол.

"В настоящее время действует более ста тайных организаций, занятых поиском и истреблением упырей (вурдалаков, вампиров)" - это выдержка из вступления к фильму. Один такой специалист приезжает с товарищем в провинциальный городок по вызову местного уголовного авторитета и в течение всего экранного времени под суровую музыку убивает колами в сердце бандитов-отморозков, терроризирующих город (товарищ его погиб от укуса почти сразу по приезде). Дело в том, что главный вампир, поселившийся в городе, превратил всех в своих слуг, подобных себе. Взять этого главного кровососа можно было только на приманку... в виде симпатичной дочери вышеупомятого авторитета, также погибшего от кола в сердце в ходе истребления нечисти. Фильм короткий, бюджет, естественно, был мал, но на колы и пару иномарок денег хватило. Тем не менее фильм смотрится с интересом и даже захватывает, так как вся эта чертовщина происходит у нас, а не где-нибудь в Америке. Мне понравился главный герой в исполнении Алексея Серебрякова - подходящая невозмутимая физиономия и лихо курит "Беломор". Это, конечно, не "От заката до рассвета", трюки и драки слабоваты, но бюджет, как я уже говорил,... Все равно, это уже кино, нормальное, коммерческое кино, снятое не без таланта
(Иванов М.)

______________________________________________________________________

Страна:
Выпущено: Киностудия им. Горького
Продолжительность: 01:12:18
Перевод: Не требуется
______________________________________________________________________



Format : AVI
Format/Info : Audio Video Interleave
File size : 1.06 GiB
Duration : 1h 12mn
Overall bit rate : 2 102 Kbps
Writing application : VirtualDubMod 1.5.10.2 (build 2540/release)

Video
ID : 0
Format : MPEG-4 Visual
Format profile : Advanced Simple@L5
Format settings, BVOP : Yes
Format settings, QPel : No
Format settings, GMC : No warppoints
Format settings, Matrix : Default (H.263)
Muxing mode : Packed bitstream
Codec ID : XVID
Codec ID/Hint : XviD
Duration : 1h 12mn
Bit rate : 1 901 Kbps
Width : 640 pixels
Height : 480 pixels
Display aspect ratio : 4:3
Frame rate : 25.000 fps
Color space : YUV
Chroma subsampling : 4:2:0
Bit depth : 8 bits
Scan type : Progressive
Bits/(Pixel*Frame) : 0.248
Stream size : 983 MiB (90%)
Writing library : XviD 1.2.1 (UTC 2008-12-04)

Audio
ID : 1
Format : AC-3
Format/Info : Audio Coding 3
Mode extension : CM (complete main)
Codec ID : 2000
Duration : 1h 12mn
Bit rate mode : Constant
Bit rate : 192 Kbps
Channel(s) : 2 channels
Channel positions : Front: L R
Sampling rate : 48.0 KHz
Bit depth : 16 bits
Stream size : 99.2 MiB (9%)
Alignment : Split accross interleaves
Interleave, duration : 40 ms (1.00 video frame)
Interleave, preload duration : 500 ms

______________________________________________________________________



______________________________________________________________________

Качество: DVDRip /Исходник DVD5/
Формат: AVI
Видео кодек: XviD
Аудио кодек: AC3
Видео: 640x480 (1.33:1), 25 fps, XviD MPEG-4 ~1900 kbps avg, 0.25 bit/pixel
Аудио: 48 kHz, AC3 Dolby Digital, 2/0 (L,R) ch, ~192.00 kbps avg
Субтитры: Нет
Навигация по главам: Нет
______________________________________________________________________













______________________________________________________________________



   Похожие торренты   Торрент   Размер 
В этой теме нет новых непрочитанных сообщений. Упырь (1997) DVDRip

2 | 3

700 МБ

В этой теме нет новых непрочитанных сообщений. Упырь (1997) DVDRip

122 | 6

1.46 ГБ

В этой теме нет новых непрочитанных сообщений. Упырь / The Ghouls (2015) WEB-DLRip | L1

5336 | 223

1.45 ГБ

В этой теме нет новых непрочитанных сообщений. Упырь / Ghoul (2015) HDRip | L1

1 | 1119

1.27 ГБ

В этой теме нет новых непрочитанных сообщений. Упырь / Ghoul (2015) WEB-DLRip от torrentfilm | L1

616 | 24

727.69 МБ

В этой теме нет новых непрочитанных сообщений. Упырь / Ghoul (2015) WEB-DLRip-AVC от ExKinoRay | L1

220 | 12

1.72 ГБ

В этой теме нет новых непрочитанных сообщений. Упырь / Ghoul (2015) WEB-DLRip от ExKinoRay | L1

1659 | 164

1.45 ГБ




Вы не можете начинать темы
Вы не можете отвечать на сообщения
Вы не можете редактировать свои сообщения
Вы не можете удалять свои сообщения
Вы не можете добавлять вложения

Перейти:  
Для Мосгорсуда, Роскомнадзора и рекламодателей: mosgorsud-torrent[собачка]yandex.ru
 Вход
ppkBB3cker v.2 © 2008-2014 @ PPK
[ Time : 0.043s | 14 Queries | GZIP : Off ]

Торрент трекер RUTOR.IN, Не можете зайти на rutor.org? Какой новый адрес рутор? Какое зеркало рутор? Не работает rutor.org и зеркала? Тогда наш торрент специально для вас. Rutor.in неофициальное зеркало rutor. В случае если у Вас заблокирован rutor или вдруг Вы не можете на него зайти, то Вы без труда сможете скачать бесплатно и без рекламы последние новинки кино, игр, сериалов и прочего у нас, на Rutor.in. Не нужно использовать прокси, чтобы зайти на рутор, достаточно воспользоваться нашим ресурсом. Все новые фильмы, игры, сериалы, книги и музыка за 2013 и 2014 годы через торрент бесплатно. Скачивайте фильмы в хорошем качестве, игры для пк, xbox, playstation без регистрации. У нас вы найдете новые Зарубежные сериалы и Русские сериалы 2013, 2014, 2015 годов. Оставайтесь с нами, качайте любимые фильмы, игры, сериалы, книги и музыку.