img image001 image001 image001 image001 image001 image001 image001 image001 image001 image001 image001 image001 image001 image001 image001

Planets Sun Sun Sun
Статистика раздачи
Автор: Снежана | Размер: 1.46 ГБ | Добавлен: 24 июл 2013
Раздают: 122    Качают: 22
Скачать торрент
Скачать торрент
Описание торрента

СообщениеДобавлено: 24 июл 2013 

#77
______________________________________________________________________
Информация о фильме:

Название: Одиночное плавание
Оригинальное название: Odinochnoye plavanye
Год выхода: 1985
Жанр: Боевик, Драма, Советское кино
______________________________________________________________________

Режиссер: Михаил Туманишвили
Сценарист: Евгений Месяцев
Оператор: Борис Бондаренко
Композитор: Виктор Бабушкин
______________________________________________________________________

В ролях: Михаил Ножкин, Александр Фатюшин, Сергей Насибов, Нартай Бегалин, Виталий Зикора, Арнис Лицитис, Олег Голубицкий, Валериан Виноградов, Сергей Волкош, Николай Лавров, Юрий Колганов, Янис Мелдерис и другие...
______________________________________________________________________

Описание: После многомесячного автономного плавания наш военный фрегат направляется на родную базу. Однако морякам приходится изменить курс и вмешаться в смертельно опасную игру, затеянную натовцами…

* Занимает по посещаемости 86-е место среди отечественных фильмов за всю историю советского кинопроката

______________________________________________________________________

Страна:
Выпущено: Мосфильм
Продолжительность: 01:30:26
Перевод: Не требуется
______________________________________________________________________



Format : AVI
Format/Info : Audio Video Interleave
File size : 1.46 GiB
Duration : 1h 30mn
Overall bit rate : 2 308 Kbps
Writing application : VirtualDubMod 1.5.10.2 (build 2540/release)

Video
ID : 0
Format : MPEG-4 Visual
Format profile : Advanced Simple@L5
Format settings, BVOP : Yes
Format settings, QPel : No
Format settings, GMC : No warppoints
Format settings, Matrix : Default (H.263)
Muxing mode : Packed bitstream
Codec ID : XVID
Codec ID/Hint : XviD
Duration : 1h 30mn
Bit rate : 2 186 Kbps
Width : 704 pixels
Height : 432 pixels
Display aspect ratio : 1.630
Frame rate : 25.000 fps
Color space : YUV
Chroma subsampling : 4:2:0
Bit depth : 8 bits
Scan type : Progressive
Bits/(Pixel*Frame) : 0.288
Stream size : 1.38 GiB (95%)
Writing library : XviD 1.2.1 (UTC 2008-12-04)

Audio
ID : 1
Format : AC-3
Format/Info : Audio Coding 3
Mode extension : CM (complete main)
Codec ID : 2000
Duration : 1h 30mn
Bit rate mode : Constant
Bit rate : 112 Kbps
Channel(s) : 1 channel
Channel positions : Front: C
Sampling rate : 48.0 KHz
Bit depth : 16 bits
Stream size : 72.4 MiB (5%)
Alignment : Split accross interleaves
Interleave, duration : 40 ms (1.00 video frame)
Interleave, preload duration : 500 ms

______________________________________________________________________



______________________________________________________________________

Качество: DVDRip /Плохой исходник DVD5/
Формат: AVI
Видео кодек: XviD
Аудио кодек: AC3
Видео: 704x432 (1.63:1), 25 fps, XviD MPEG-4 ~2186 kbps avg, 0.29 bit/pixel
Аудио: 48 kHz, AC3 Dolby Digital, 1/0 (C) ch, ~112.00 kbps avg
Субтитры: Нет
Навигация по главам: Нет
______________________________________________________________________













______________________________________________________________________



   Похожие торренты   Торрент   Размер 
В этой теме нет новых непрочитанных сообщений. Одиночное плавание (1985) DVDRip от New-Team

45 | 28

745.05 МБ

В этой теме нет новых непрочитанных сообщений. Одиночное плавание (1985) DVDRip-AVC от ExKinoRay

290 | 23

1.64 ГБ

В этой теме нет новых непрочитанных сообщений. Одиночное плавание (1985) DVDRip-AVC от New-Team

260 | 21

1.46 ГБ

В этой теме нет новых непрочитанных сообщений. Одиночное плавание (1985) DVDRip-AVC от Тorrent-Хzona

29 | 4

1.31 ГБ

В этой теме нет новых непрочитанных сообщений. Одиночное плавание / Im Alleingang / Solo Voyage (1985) DVD9

0 | 3

7.15 ГБ

В этой теме нет новых непрочитанных сообщений. Свободное плавание (2006) DVDRip

188 | 16

1.37 ГБ

В этой теме нет новых непрочитанных сообщений. Various Artists - The Hits Album 2 1985 [Vinyl-Rip 24-bit] (1985) WAV

0 | 0

1.91 ГБ




Вы не можете начинать темы
Вы не можете отвечать на сообщения
Вы не можете редактировать свои сообщения
Вы не можете удалять свои сообщения
Вы не можете добавлять вложения

Перейти:  
Для Мосгорсуда, Роскомнадзора и рекламодателей: mosgorsud-torrent[собачка]yandex.ru
 Вход
ppkBB3cker v.2 © 2008-2014 @ PPK
[ Time : 0.576s | 15 Queries | GZIP : Off ]

cron