img image001 image001 image001 image001 image001 image001 image001 image001 image001 image001 image001 image001 image001 image001 image001

Planets Sun Sun Sun
Статистика раздачи
Автор: Снежана | Размер: 2.55 ГБ | Добавлен: 23 июл 2013, 21:03
Раздают: 388    Качают: 75
Скачать торрент
Скачать торрент
Описание торрента

СообщениеДобавлено: 23 июл 2013, 21:03 

#77
______________________________________________________________________

[size=5]В зоне особого внимания


______________________________________________________________________
Информация о фильме:

Название: В зоне особого внимания
Оригинальное название: V zone osobogo vnimaniya
Год выхода: 1978
Жанр: Боевик, Приключения, Советское кино
______________________________________________________________________

Режиссер: Андрей Малюков
Сценарист: Евгений Месяцев
Оператор: Игорь Богданов
Композитор: Марк Минков
______________________________________________________________________

В ролях: Борис Галкин, Михай Волонтир, Сергей Волкош, Игорь Иванов, Анатолий Кузнецов, Александр Пятков, Елена Цыплакова, Юрий Чернов, Александр Гай, Николай Крюков, Владимир Заманский, Анатолий Веденкин, Михаил Кокшенов, Сергей Подгорный, Иван Агафонов, Борис Бачурин и другие...
______________________________________________________________________

Описание: Во время военных учений командир гвардейского полка направляет в тыл «врага» три диверсионные группы для обнаружения и захвата замаскированного командного пункта. Срок исполнения — двое суток. Разведчики выполняют задание в условиях, максимально приближенных к боевым…

* Егоров на бегу поёт песню из мультфильма «Винни Пух». В реальной жизни, при беге (а особенно при марш-броске) нельзя петь. Даже говорить нельзя — от пения или разговора теряется дыхание. Разведчики ВДВ не носят голубые береты на задания. Они носят маскировочные шапочки и маски, но генерал Маргелов лично потребовал, чтобы были голубые береты.
* В фильме самолёты не имеют опознавательных знаков. В советсой армии использовались Ил-76 Аэрофлота, потому что так можно было летать за границу коммерческими рейсами, но всё-таки нельзя было показать, что Аэрофлот — военная организация. И поэтому самолёты перекрашивались вручную в каждом кадре.
* В фильме было вырезанно много моментов (в том числе и документальных), из-за соображений секретности. К сожалению, весь этот материал был уничтожен в процессе монтажа. Поэтому режиссёрской версии никогда не будет.
* Интересен тот факт, что актёр Волонтир играет некоего прапорщика Волентира.
* Актёр Волкош указан в титрах как Волкаш.
* В конце фильма звучит песня десантников «Лишь недавно учились мы…».
Героико-приключенческий боевик

Фильм Андрея Малюкова, как бы ещё рядового советской режиссуры (ведь это дебют 30-летнего постановщика в полнометражном кино, причём для пробы запущен в производство в качестве короткометражки), очень пришёлся по душе не только начальству (был дан четвёртый по количеству тираж в 1978 году), но и зрителям: пятое место среди отечественных лент, сразу после вестерна «Вооружён и очень опасен», экранизации рассказов Брет-Гарта. Такое соседство лишний раз свидетельствует о столь же условной и откровенно придуманной игре в приключенческий жанр, которую не без азарта и занимательности устроили создатели современного боевика о буднях и ратной учёбе солдат и офицеров Советской Армии.

И в отличие от последующих разработок обнаруженной (прежде всего — сценаристом Евгением Месяцевым) «золотоносной жилы», своего рода Клондайка в военно-патриотической теме, «В зоне особого внимания» до сих пор увлекает свежестью, непосредственностью, даже смекалкой и хитроумностью в подходе, причём без крена в откровенную сочинённость залихватских приключений. Подобно энергичному и ушлому герою из разведывательно-диверсионной группы, которая заслана в тыл условного противника и вообще захватывает тайный штаб в полном составе, Малюков (кстати, он прошёл хорошую школу ассистента на военной эпопее «Освобождение») тоже провёл дерзкую операцию по превращению порой занудно представляемого жанра армейского фильма в некий вариант «интерактивной компьютерной игры». Но, пожалуй, самое ценное заключается в том, что картина не лишена иронии и даже остроумия — и это выгодно её отличает от «шапкозакидательских опусов» конца 30-х годов, например, «Если завтра война» (знаменательно, что Андрей Малюков окончил во ВГИКе мастерскую Ефима Дзигана, одного из авторов этой довоенной «кинематографической Зарницы»). /Сергей Кудрявцев/

______________________________________________________________________

Страна:
Выпущено: Мосфильм
Продолжительность: 01:32:17
Перевод: Не требуется
______________________________________________________________________



Format : Matroska
File size : 1.46 GiB
Duration : 1h 32mn
Overall bit rate : 2 261 Kbps
Encoded date : UTC 2010-07-31 05:37:06
Writing application : mkvmerge v3.1.0 ('Happy up here') built on Jan 19 2010 12:09:24
Writing library : libebml v0.7.9 + libmatroska v0.8.1

Video
ID : 1
Format : AVC
Format/Info : Advanced Video Codec
Format profile : Baseline@L3.0
Format settings, CABAC : No
Format settings, ReFrames : 1 frame
Muxing mode : Container profile=Unknown@3.0
Codec ID : V_MPEG4/ISO/AVC
Duration : 1h 32mn
Bit rate : 2 067 Kbps
Width : 694 pixels
Height : 402 pixels
Display aspect ratio : 16:9
Frame rate : 25.000 fps
Color space : YUV
Chroma subsampling : 4:2:0
Bit depth : 8 bits
Scan type : Progressive
Bits/(Pixel*Frame) : 0.296
Stream size : 1.30 GiB (90%)
Writing library : x264 core 98 r1649 c54c47d
Encoding settings : cabac=0 / ref=1 / deblock=0:0:0 / analyse=0:0 / me=dia / subme=0 / psy=1 / psy_rd=0.00:0.00 / mixed_ref=0 / me_range=16 / chroma_me=1 / trellis=0 / 8x8dct=0 / cqm=0 / deadzone=21,11 / fast_pskip=1 / chroma_qp_offset=0 / threads=1 / sliced_threads=0 / nr=0 / decimate=1 / interlaced=0 / constrained_intra=0 / bframes=0 / weightp=0 / keyint=250 / keyint_min=25 / scenecut=0 / intra_refresh=0 / rc=2pass / mbtree=0 / bitrate=2067 / ratetol=1.0 / qcomp=0.60 / qpmin=10 / qpmax=51 / qpstep=4 / cplxblur=20.0 / qblur=0.5 / ip_ratio=1.40 / aq=0
Language : Russian

Audio
ID : 2
Format : AC-3
Format/Info : Audio Coding 3
Mode extension : CM (complete main)
Codec ID : A_AC3
Duration : 1h 32mn
Bit rate mode : Constant
Bit rate : 192 Kbps
Channel(s) : 2 channels
Channel positions : Front: L R
Sampling rate : 48.0 KHz
Bit depth : 16 bits
Stream size : 127 MiB (8%)
Language : Russian

______________________________________________________________________



______________________________________________________________________

Качество: DVDRip-AVC /исходник DVD5/
Формат: MKV
Видео кодек: x264
Аудио кодек: AC3
Видео: MPEG4 Video (H264) 694x402, 25.00fps, ~2067 kbps avg, 0.29 bit/pixel
Аудио: 48 kHz, AC3 Dolby Digital, 2 channels, ~192.00 kbps avg
Субтитры: Нет
Навигация по главам: Нет
______________________________________________________________________











______________________________________________________________________

[size=5]Ответный ход



______________________________________________________________________
[font=Georgia]
Информация о фильме:

Название: Ответный ход
Оригинальное название: Otvetnyy khod
Год выхода: 1981
Жанр: Боевик, Приключения, Советское кино
______________________________________________________________________

Режиссер: Михаил Туманишвили
Сценарист: Евгений Месяцев
Оператор: Борис Бондаренко
Композитор: Виктор Бабушкин
______________________________________________________________________

В ролях: Борис Галкин, Вадим Спиридонов, Елена Глебова, Анатолий Кузнецов, Михай Волонтир, Александр Пятков, Лаймонас Норейка, Даниил Нетребин, Владимир Маренков, Михаил Чигарев, Анатолий Ромашин, Леонид Белозорович и другие...
______________________________________________________________________

Описание: Вторая часть истории, начатой фильмом «В зоне особого внимания». Действие вновь разворачивается во время крупных войсковых учений. Однако на этот раз перед десантниками поставлены более сложные задачи…
______________________________________________________________________

Страна:
Выпущено: Мосфильм
Продолжительность: 01:19:42
Перевод: Не требуется
______________________________________________________________________



Format : Matroska
File size : 1.09 GiB
Duration : 1h 19mn
Overall bit rate : 1 962 Kbps
Encoded date : UTC 2010-07-31 09:15:07
Writing application : mkvmerge v3.1.0 ('Happy up here') built on Jan 19 2010 12:09:24
Writing library : libebml v0.7.9 + libmatroska v0.8.1

Video
ID : 1
Format : AVC
Format/Info : Advanced Video Codec
Format profile : Baseline@L2.1
Format settings, CABAC : No
Format settings, ReFrames : 1 frame
Muxing mode : Container profile=Unknown@2.1
Codec ID : V_MPEG4/ISO/AVC
Duration : 1h 19mn
Bit rate : 1 768 Kbps
Width : 672 pixels
Height : 288 pixels
Display aspect ratio : 2.35:1
Frame rate : 25.000 fps
Color space : YUV
Chroma subsampling : 4:2:0
Bit depth : 8 bits
Scan type : Progressive
Bits/(Pixel*Frame) : 0.365
Stream size : 987 MiB (88%)
Writing library : x264 core 98 r1649 c54c47d
Encoding settings : cabac=0 / ref=1 / deblock=0:0:0 / analyse=0:0 / me=dia / subme=0 / psy=1 / psy_rd=0.00:0.00 / mixed_ref=0 / me_range=16 / chroma_me=1 / trellis=0 / 8x8dct=0 / cqm=0 / deadzone=21,11 / fast_pskip=1 / chroma_qp_offset=0 / threads=1 / sliced_threads=0 / nr=0 / decimate=1 / interlaced=0 / constrained_intra=0 / bframes=0 / weightp=0 / keyint=250 / keyint_min=25 / scenecut=0 / intra_refresh=0 / rc=2pass / mbtree=0 / bitrate=1768 / ratetol=1.0 / qcomp=0.60 / qpmin=10 / qpmax=51 / qpstep=4 / cplxblur=20.0 / qblur=0.5 / ip_ratio=1.40 / aq=0
Language : Russian

Audio
ID : 2
Format : AC-3
Format/Info : Audio Coding 3
Mode extension : CM (complete main)
Codec ID : A_AC3
Duration : 1h 19mn
Bit rate mode : Constant
Bit rate : 192 Kbps
Channel(s) : 2 channels
Channel positions : Front: L R
Sampling rate : 48.0 KHz
Bit depth : 16 bits
Stream size : 109 MiB (10%)
Language : Russian

______________________________________________________________________



______________________________________________________________________

Качество: DVDRip-AVC /исходник DVD5/
Формат: MKV
Видео кодек: x264
Аудио кодек: AC3
Видео: MPEG4 Video (H264) 672x288, 25.00fps, ~1768 kbps avg, 0.36 bit/pixel
Аудио: 48 kHz, AC3 Dolby Digital, 2 channels, ~192.00 kbps avg
Субтитры: Нет
Навигация по главам: Нет
______________________________________________________________________















   Похожие торренты   Торрент   Размер 
В этой теме нет новых непрочитанных сообщений. В зоне особого внимания + Ответный ход (1977-1981) DVDRip

0 | 305

1.41 ГБ

В этой теме нет новых непрочитанных сообщений. В зоне особого внимания + Ответный ход (1977-1981) DVD9

8 | 21

7.5 ГБ

В этой теме нет новых непрочитанных сообщений. В зоне особого внимания (1977) DVDRip

82 | 11

745.72 МБ

В этой теме нет новых непрочитанных сообщений. В зоне особого внимания (1977) DVDRip

506 | 15

1.46 ГБ

В этой теме нет новых непрочитанных сообщений. В зоне особого внимания (1977) DVDRip от MediaClub | КПК

23 | 7

417.55 МБ

В этой теме нет новых непрочитанных сообщений. В зоне особого внимания (1977) DVD5 by гаврила

77 | 11

3.94 ГБ

В этой теме нет новых непрочитанных сообщений. В зоне особого риска [эфир 11.07] (2011) SATRip

0 | 2

263.95 МБ




Вы не можете начинать темы
Вы не можете отвечать на сообщения
Вы не можете редактировать свои сообщения
Вы не можете удалять свои сообщения
Вы не можете добавлять вложения

Перейти:  
Для Мосгорсуда, Роскомнадзора и рекламодателей: mosgorsud-torrent[собачка]yandex.ru
Настройки
ppkBB3cker v.2 © 2008-2014 @ PPK
[ Time : 0.025s | 16 Queries | GZIP : Off ]
CGP [Extreme] output time : 0.00088s | 0 Queries | GZIP : Off

Торрент трекер RUTOR.IN, Не можете зайти на rutor.org? Какой новый адрес рутор? Какое зеркало рутор? Не работает rutor.org и зеркала? Тогда наш торрент специально для вас. Rutor.in неофициальное зеркало rutor. В случае если у Вас заблокирован rutor или вдруг Вы не можете на него зайти, то Вы без труда сможете скачать бесплатно и без рекламы последние новинки кино, игр, сериалов и прочего у нас, на Rutor.in. Не нужно использовать прокси, чтобы зайти на рутор, достаточно воспользоваться нашим ресурсом. Все новые фильмы, игры, сериалы, книги и музыка за 2013 и 2014 годы через торрент бесплатно. Скачивайте фильмы в хорошем качестве, игры для пк, xbox, playstation без регистрации. У нас вы найдете новые Зарубежные сериалы и Русские сериалы 2013, 2014, 2015 годов. Оставайтесь с нами, качайте любимые фильмы, игры, сериалы, книги и музыку.