img image001 image001 image001 image001 image001 image001 image001 image001 image001 image001 image001 image001 image001 image001 image001

Planets Sun Sun Sun
Статистика раздачи
Автор: Снежана | Размер: 1.1 ГБ | Добавлен: 24 июл 2013
Раздают: 109    Качают: 7
Скачать торрент
Скачать торрент
Описание торрента

СообщениеДобавлено: 24 июл 2013 

Порожний рейс /1962/


______________________________________________________________________
Информация о фильме:

Название: Порожний рейс
Оригинальное название: Porozhniy reys
Год выхода: 1962
Жанр: Драма, Советское кино
______________________________________________________________________

Режиссер: Владимир Венгеров
Сценарист: Сергей Антонов
Оператор: Генрих Маранджян
Композитор: Исаак Шварц
______________________________________________________________________

В ролях: Георгий Юматов, Александр Демьяненко, Тамара Сёмина, Герман Качин, Светлана Харитонова, Анатолий Папанов, Борис Чирков, Ирина Губанова, Николай Крюков, Николай Кузьмин и другие...
______________________________________________________________________

Описание: В сибирский леспромхоз приезжает молодой журналист Сироткин, чтобы написать очерк о шофере-передовике Хромове. Познакомившись с делами, он узнает, что шофер замешан в темных махинациях директора леспромхоза. Почувствовав опасность, директор поручает Хромову покончить с журналистом, когда тот повезет его обратно…



______________________________________________________________________

Страна:
Выпущено: Ленфильм
Продолжительность: 01:28:28
Перевод: Не требуется
______________________________________________________________________



Format : Matroska
File size : 1.10 GiB
Duration : 1h 28mn
Overall bit rate : 1 777 Kbps
Encoded date : UTC 2010-08-08 18:10:37
Writing application : mkvmerge v3.1.0 ('Happy up here') built on Jan 19 2010 12:09:24
Writing library : libebml v0.7.9 + libmatroska v0.8.1

Video
ID : 1
Format : AVC
Format/Info : Advanced Video Codec
Format profile : Main@L3.0
Format settings, CABAC : No
Format settings, ReFrames : 4 frames
Muxing mode : Container profile=Unknown@3.0
Codec ID : V_MPEG4/ISO/AVC
Duration : 1h 28mn
Bit rate : 1 583 Kbps
Width : 696 pixels
Height : 350 pixels
Display aspect ratio : 1.989
Frame rate : 25.000 fps
Color space : YUV
Chroma subsampling : 4:2:0
Bit depth : 8 bits
Scan type : Progressive
Bits/(Pixel*Frame) : 0.260
Stream size : 981 MiB (87%)
Writing library : x264 core 98 r1649 c54c47d
Encoding settings : cabac=0 / ref=2 / deblock=1:6:6 / analyse=0:0 / me=dia / subme=0 / psy=1 / psy_rd=0.00:0.00 / mixed_ref=0 / me_range=16 / chroma_me=1 / trellis=0 / 8x8dct=0 / cqm=0 / deadzone=21,11 / fast_pskip=1 / chroma_qp_offset=0 / threads=1 / sliced_threads=0 / nr=0 / decimate=1 / interlaced=0 / constrained_intra=0 / bframes=8 / b_pyramid=2 / b_adapt=0 / b_bias=2 / direct=1 / weightb=0 / weightp=0 / keyint=250 / keyint_min=25 / scenecut=0 / intra_refresh=0 / rc=2pass / mbtree=0 / bitrate=1583 / ratetol=1.0 / qcomp=0.60 / qpmin=10 / qpmax=51 / qpstep=4 / cplxblur=20.0 / qblur=0.5 / ip_ratio=1.40 / pb_ratio=1.30 / aq=0
Language : Russian

Audio
ID : 2
Format : AC-3
Format/Info : Audio Coding 3
Mode extension : CM (complete main)
Codec ID : A_AC3
Duration : 1h 28mn
Bit rate mode : Constant
Bit rate : 192 Kbps
Channel(s) : 2 channels
Channel positions : Front: L R
Sampling rate : 48.0 KHz
Bit depth : 16 bits
Stream size : 121 MiB (11%)
Language : Russian

______________________________________________________________________



______________________________________________________________________

Качество: DVDRip-AVC /исходник DVD5/
Формат: MKV
Видео кодек: x264
Аудио кодек: AC3
Видео: MPEG4 Video (H264) 696x350, 25.00fps, ~1583 kbps avg, 0.26 bit/pixel
Аудио: 48 kHz, AC3 Dolby Digital, 2 channels, ~192.00 kbps avg
Субтитры: Нет
Навигация по главам: Нет
______________________________________________________________________













   Похожие торренты   Торрент   Размер 
В этой теме нет новых непрочитанных сообщений. Полосатый рейс / Полосатый рейс (1961) BDRip 1080p

48 | 40

7.97 ГБ

В этой теме нет новых непрочитанных сообщений. Полярный рейс (2013) DVDRip-AVC

666 | 142

1.45 ГБ

В этой теме нет новых непрочитанных сообщений. Полосатый рейс (1961) DVDRip

118 | 6

1.99 ГБ

В этой теме нет новых непрочитанных сообщений. Рейс 222 (1985) DVDRip от Кинорадиомагия

36 | 14

2.5 ГБ

В этой теме нет новых непрочитанных сообщений. Космический рейс (1935) DVDRip-AVC | 3 аудиодорожки

103 | 13

1.63 ГБ

В этой теме нет новых непрочитанных сообщений. Счастливый рейс (1949) DVDRip от New-Team

11 | 4

1.09 ГБ

В этой теме нет новых непрочитанных сообщений. Счастливый рейс (1949) DVDRip от New-Team

29 | 8

743.99 МБ




Вы не можете начинать темы
Вы не можете отвечать на сообщения
Вы не можете редактировать свои сообщения
Вы не можете удалять свои сообщения
Вы не можете добавлять вложения

Перейти:  
Для Мосгорсуда, Роскомнадзора и рекламодателей: mosgorsud-torrent[собачка]yandex.ru
 Вход
ppkBB3cker v.2 © 2008-2014 @ PPK
[ Time : 0.584s | 15 Queries | GZIP : On ]

Торрент трекер RUTOR.IN, Не можете зайти на rutor.org? Какой новый адрес рутор? Какое зеркало рутор? Не работает rutor.org и зеркала? Тогда наш торрент специально для вас. Rutor.in неофициальное зеркало rutor. В случае если у Вас заблокирован rutor или вдруг Вы не можете на него зайти, то Вы без труда сможете скачать бесплатно и без рекламы последние новинки кино, игр, сериалов и прочего у нас, на Rutor.in. Не нужно использовать прокси, чтобы зайти на рутор, достаточно воспользоваться нашим ресурсом. Все новые фильмы, игры, сериалы, книги и музыка за 2013 и 2014 годы через торрент бесплатно. Скачивайте фильмы в хорошем качестве, игры для пк, xbox, playstation без регистрации. У нас вы найдете новые Зарубежные сериалы и Русские сериалы 2013, 2014, 2015 годов. Оставайтесь с нами, качайте любимые фильмы, игры, сериалы, книги и музыку.
cron