img image001 image001 image001 image001 image001 image001 image001 image001 image001 image001 image001 image001 image001 image001 image001

Planets Sun Sun Sun
Статистика раздачи
Автор: Снежана | Размер: 1.95 ГБ | Добавлен: 24 июл 2013
Раздают: 16    Качают: 4
Скачать торрент
Скачать торрент
Описание торрента

СообщениеДобавлено: 24 июл 2013 

#77

оригинальное Название: Night Watch
Название: Ночной дозор
Год выхода: 2004
Жанр: Боевик, триллер, фэнтези
Язык: русский
Озвучивание: вступление на английском, оригинальное
Режиссер: Тимур Бекмамбетов
В ролях: Константин Хабенский, Владимир Меньшов, Валерий Золотухин, Мария Порошина, Галина Тюнина, Гоша Куценко, Алексей Чадов, Жанна Фриске, Илья Лагутенко, Виктор Вержбицкий, Римма Маркова, Мария Миронова, Алексей Маклаков, Александр Самойленко, Дима Мартынов

О фильме:
Все знают, что на ночных улицах опасно. Но в данном случае речь идет не о преступниках и маньяках. Когда наступает ночь, и силы Зла властвуют безраздельно, можно столкнуться с теми, с кем не встретишься днем — темными магами, вампирами и прочей нечистью. Их сила столь велика, что справиться с ними обычным оружием невозможно.

Но по следу «ночных охотников» идут те, кто веками сражается с порождениями сумрака и побеждает их, неукоснительно соблюдая при этом Договор, заключенный тысячелетия тому назад между Светлыми и Темными… Имя им — Ночной Дозор. Их предназначение — сохранение равновесия между Добром и Злом, нарушение которого вызывает разрушения, войны, революции, вселенские катастрофы.

Каждый плохой человеческий поступок — измена, предательство, убийство, равно, как и хороший, ложится на чашу весов, перевешивая их то в одну, то в другую сторону. Именно поэтому и силы Света, и силы Тьмы вынуждены существовать в двух мирах: реальном и потустороннем, пытаясь либо подтолкнуть человека к греху, либо отвратить от него…

ВНИМАНИЕ!!!т.к. BD выпущен 20th Century Fox (Япония)
Вступительный рассказ на английском
Рассказ в прологе расширили, чтобы лучше объяснить всю концепцию "Иных". Помимо того, с этой же целью передублировали несколько экспозиционных сцен, в основном, с Гесером и Ольгой. Теперь в фильме делается почти уже назойливый упор на то, что у каждого Иного есть право выбора.
В интернациональной версии Антона сделали "провидцем", у которого теперь бывают видения, анимированные компьютерным способом.
Самое большое различие - отсутствие нескольких сцен из русской версии. Два сюжетных хода выбросили совсем, чтобы упростить сюжет и уменьшить количество персонажей, также целиком вырезали скрытую рекламу.
Некоторые сцены попросту перемонтировали.
Помимо принципиально нового монтажа, авторы переписали и музыку. "Уму Турман" в фильме заменили композиции популярной в Европе группы "Фидер".
Остальные же изменения чисто косметической натуры, минимальные сокращения. И хотя это многие утверждали, в компьютерных эффектах ничего не изменили, и их не улучшали..."


Формат: AVI(h.264)
Качество: BdRip
Видео: 704x384, 23.976 fps, 2050 kbps, x264 AVC Level 3
Аудио: АС3 384 Kbps 6 ch 48.0 KHz

Релиз:

C:TempNochnoy.dozor.2004.BDrip.RG 48 Seconds.avi
General
Complete name : C:TempNochnoy.dozor.2004.BDrip.RG 48 Seconds.avi
Format : AVI
Format/Info : Audio Video Interleave
File size : 1.95 GiB
Duration : 1h 54mn
Overall bit rate : 2 440 Kbps
Writing application : VirtualDubMod 1.5.10.2 (build 2540/release)
Writing library : VirtualDub build 32817/release
Video #0
ID : 0
Format : AVC
Format/Info : Advanced Video Codec
Format profile : High@L3.0
Format settings, CABAC : Yes
Format settings, ReFrames : 8 frames
Codec ID : h264
Duration : 1h 54mn
Bit rate : 2 050 Kbps
Width : 704 pixels
Height : 384 pixels
Display aspect ratio : 16:9
Frame rate : 23.976 fps
Resolution : 24 bits
Colorimetry : 4:2:0
Scan type : Progressive
Bits/(Pixel*Frame) : 0.316
Stream size : 1.63 GiB (84%)
Writing library : x264 core 92 r1510 33d382a
Encoding settings : cabac=1 / ref=8 / deblock=1:-1:-1 / analyse=0x3:0x133 / me=umh / subme=7 / psy=1 / psy_rd=1.00:0.10 / mixed_ref=1 / me_range=16 / chroma_me=1 / trellis=2 / 8x8dct=1 / cqm=0 / deadzone=21,11 / fast_pskip=0 / chroma_qp_offset=-3 / threads=3 / sliced_threads=0 / nr=0 / decimate=1 / interlaced=0 / constrained_intra=0 / bframes=3 / b_pyramid=0 / b_adapt=2 / b_bias=0 / direct=3 / wpredb=1 / wpredp=2 / keyint=250 / keyint_min=25 / scenecut=40 / intra_refresh=0 / rc_lookahead=50 / rc=2pass / mbtree=1 / bitrate=2050 / ratetol=1.0 / qcomp=0.60 / qpmin=10 / qpmax=51 / qpstep=4 / cplxblur=20.0 / qblur=0.5 / ip_ratio=1.40 / aq=1:1.00
Audio #1
ID : 1
Format : AC-3
Format/Info : Audio Coding 3
Codec ID : 2000
Duration : 1h 54mn
Bit rate mode : Constant
Bit rate : 384 Kbps
Channel(s) : 6 channels
Channel positions : Front: L C R, Surround: L R, LFE
Sampling rate : 48.0 KHz
Stream size : 314 MiB (16%)
Alignment : Aligned on interleaves
Interleave, duration : 42 ms (1.00 video frame)
Interleave, preload duration : 512 ms









   Похожие торренты   Торрент   Размер 
В этой теме нет новых непрочитанных сообщений. Ночной дозор / Night Watch (2004) BDRip от HQ-ViDEO

99 | 9

2.18 ГБ

В этой теме нет новых непрочитанных сообщений. Ночной дозор / Night Watch (2004) BDRip от HELLYWOOD

10 | 10

2.18 ГБ

В этой теме нет новых непрочитанных сообщений. Ночной Дозор / Night Watch (2004) BDRip 1080p

245 | 33

7.76 ГБ

В этой теме нет новых непрочитанных сообщений. Ночной дозор / Night Watch (2004) DVDRip от HQ-ViDEO & UnSeeN | Международная версия

54 | 9

1.45 ГБ

В этой теме нет новых непрочитанных сообщений. Ночной дозор / Night Watch (1995) DVDRip

13 | 6

1.46 ГБ

В этой теме нет новых непрочитанных сообщений. Дневной Дозор / Day Watch (2006) BDRip R.G. "48 seconds" от Zlofenix

44 | 4

2.24 ГБ

В этой теме нет новых непрочитанных сообщений. Ночной дозор / Night Watch (1995) DVD5 от Youtracker | P

8 | 2

4.37 ГБ




Вы не можете начинать темы
Вы не можете отвечать на сообщения
Вы не можете редактировать свои сообщения
Вы не можете удалять свои сообщения
Вы не можете добавлять вложения

Перейти:  
Для Мосгорсуда, Роскомнадзора и рекламодателей: mosgorsud-torrent[собачка]yandex.ru
 Вход
ppkBB3cker v.2 © 2008-2014 @ PPK
[ Time : 1.366s | 14 Queries | GZIP : Off ]

Торрент трекер RUTOR.IN, Не можете зайти на rutor.org? Какой новый адрес рутор? Какое зеркало рутор? Не работает rutor.org и зеркала? Тогда наш торрент специально для вас. Rutor.in неофициальное зеркало rutor. В случае если у Вас заблокирован rutor или вдруг Вы не можете на него зайти, то Вы без труда сможете скачать бесплатно и без рекламы последние новинки кино, игр, сериалов и прочего у нас, на Rutor.in. Не нужно использовать прокси, чтобы зайти на рутор, достаточно воспользоваться нашим ресурсом. Все новые фильмы, игры, сериалы, книги и музыка за 2013 и 2014 годы через торрент бесплатно. Скачивайте фильмы в хорошем качестве, игры для пк, xbox, playstation без регистрации. У нас вы найдете новые Зарубежные сериалы и Русские сериалы 2013, 2014, 2015 годов. Оставайтесь с нами, качайте любимые фильмы, игры, сериалы, книги и музыку.