img image001 image001 image001 image001 image001 image001 image001 image001 image001 image001 image001 image001 image001 image001 image001

Planets Sun Sun Sun
Статистика раздачи
Автор: Снежана | Размер: 1.95 ГБ | Добавлен: 24 июл 2013
Раздают: 103    Качают: 14
Скачать торрент
Скачать торрент
Описание торрента

СообщениеДобавлено: 24 июл 2013 

Золотая мина /1977/ DTS 5.1







Информация о фильме:

Название: Золотая мина
Год выхода: 1977
Жанр: Триллер, Детектив, Криминал, Советское кино



Режиссер: Евгений Татарский
Сценаристы: Павел Грахов, Артур Макаров
Оператор: Константин Рыжов
Композитор: Исаак Шварц



В главных ролях:
Михаил Глузский — полковник Константин Иванович Зарубин
Евгений Киндинов — капитан Сергей Корнеевич Крошин
Олег Даль — Косов
Лариса Удовиченко — лейтенант Татьяна Семеновна Лебедева
Игорь Дмитриев — Ян Карлович Подниекс
Игорь Ефимов — Литвиненко
Игорь Добряков — Лохов
Любовь Полищук — Лариса
Жанна Прохоренко — Брунова
Геворг Чепчан — Меликтесян
Олег Ефремов — Карпов
Игорь Янковский — Торчинский
Елена Фомченко — Тамара
Лев Лемке — Дроздовский
Татьяна Ткач — Дроздовская
и другие...



Описание: Милицейская группа, возглавляемая полковником Зарубиным расследовала обычное дорожное происшествие: на дороге у дачного поселка неизвестный автомобиль сбил работника универмага Олега Торчинского. А через пару дней архитектор Дроздовский обратился в милицию с заявлением, что кто-то следит за его дачей…
Приятель пострадавшего рассказал в милиции о таинственном кладе, спрятанном на одной из дач поселка, который и хотел найти Торчинский, случайно узнавший о существовании ценностей и месте, где их спрятал отец уголовника Бориса Брунова…
Борис Брунов, сбежавший из заключения, находился в розыске. Он изменил внешность с помощью хирурга, специализирующегося на пластических операциях, и стал фотографом Косовым. Косову-Брунову удалось ускользнуть из засады, организованной оперативниками у дачи Дроздовского. Пришлось капитану Крошину лететь за главарем шайки в Ялту.

Очень хороший для своего времени двухсерийный детектив смотрится и сейчас. Из тюрьмы бежит Брунов, получивший восемь лет за валютные спекуляции в особо крупных размерах. На его бывшей даче, принадлежащей теперь другим людям, двое горе-кладоискателей хотели отрыть спрятанный клад, оказавшийся для них настоящей миной - оба чуть не лишились жизни. Следственная группа во главе с Михаилом Глузским ведет расследование...

Даль сыграл роль злодея Брунова так, что я (лично) был на его стороне. (Иванов М.)
* Когда на дачу к Дроздовским приезжает Зарубин с милицией, в окне за фигурой Дроздовской видно, как там уже маячит милиционер. Непонятно, как он там оказался, Дроздовские в тот момент должны были быть на даче одни. (Википедия)
Автором основной музыки к фильму является Исаак Шварц. Но наиболее запоминающейся оказалась инструментальная тема, котороя сопровождала сцену, когда капитан Крошин (Евгений Киндинов) в баре ищет девушек, замешанных в деле, и финальную сцену задержания Косова/Брунова (которого играл Олег Даль). Эту композицию написал Дмитрий Кижаев. У неё два названия - "Гадалка" и "Монисто". (Википедия)



Страна:
Выпущено: Ленфильм
Продолжительность: 02:10:40
Перевод: Не требуется
Субтитры: Нет









Format : AVI
Format/Info : Audio Video Interleave
File size : 996 MiB
Duration : 1h 3mn
Overall bit rate : 2 192 Kbps
Writing application : VirtualDubMod 1.5.10.2 (build 2540/release)
Writing library : VirtualDubMod build 2540/release

Video
ID : 0
Format : MPEG-4 Visual
Format profile : Advanced Simple@L5
Format settings, BVOP : Yes
Format settings, QPel : No
Format settings, GMC : No warppoints
Format settings, Matrix : Default (H.263)
Codec ID : XVID
Codec ID/Hint : XviD
Duration : 1h 3mn
Bit rate : 1 428 Kbps
Width : 688 pixels
Height : 512 pixels
Display aspect ratio : 4:3
Frame rate : 25.000 fps
Color space : YUV
Chroma subsampling : 4:2:0
Bit depth : 8 bits
Scan type : Progressive
Bits/(Pixel*Frame) : 0.162
Stream size : 649 MiB (65%)
Writing library : XviD 1.2.1 (UTC 2008-12-04)

Audio
ID : 1
Format : DTS
Format/Info : Digital Theater Systems
Codec ID : 2001
Codec ID/Info : Digital Theater Systems
Duration : 1h 3mn
Bit rate mode : Constant
Bit rate : 755 Kbps
Channel(s) : 6 channels
Channel positions : Front: L C R, Side: L R, LFE
Sampling rate : 48.0 KHz
Bit depth : 24 bits
Stream size : 343 MiB (34%)
Alignment : Split accross interleaves
Interleave, duration : 40 ms (1.00 video frame)
Interleave, preload duration : 500 ms
Format : AVI
Format/Info : Audio Video Interleave
File size : 996 MiB
Duration : 1h 7mn
Overall bit rate : 2 075 Kbps
Writing application : VirtualDubMod 1.5.10.2 (build 2540/release)
Writing library : VirtualDubMod build 2540/release

Video
ID : 0
Format : MPEG-4 Visual
Format profile : Advanced Simple@L5
Format settings, BVOP : Yes
Format settings, QPel : No
Format settings, GMC : No warppoints
Format settings, Matrix : Default (H.263)
Codec ID : XVID
Codec ID/Hint : XviD
Duration : 1h 7mn
Bit rate : 1 311 Kbps
Width : 688 pixels
Height : 512 pixels
Display aspect ratio : 4:3
Frame rate : 25.000 fps
Color space : YUV
Chroma subsampling : 4:2:0
Bit depth : 8 bits
Scan type : Progressive
Bits/(Pixel*Frame) : 0.149
Stream size : 629 MiB (63%)
Writing library : XviD 1.2.1 (UTC 2008-12-04)

Audio
ID : 1
Format : DTS
Format/Info : Digital Theater Systems
Codec ID : 2001
Codec ID/Info : Digital Theater Systems
Duration : 1h 7mn
Bit rate mode : Constant
Bit rate : 755 Kbps
Channel(s) : 6 channels
Channel positions : Front: L C R, Side: L R, LFE
Sampling rate : 48.0 KHz
Bit depth : 24 bits
Stream size : 362 MiB (36%)
Alignment : Split accross interleaves
Interleave, duration : 40 ms (1.00 video frame)
Interleave, preload duration : 500 ms



Качество: DVDRip /Источник DVD9/
Формат: AVI
Видео кодек: XviD
Аудио кодек: DTS
Видео CD1: 688x512 (1.34:1), 25 fps, XviD build 50 ~1428 kbps avg, 0.16 bit/pixel
Аудио CD1: 48 kHz, DTS, 5 ch, ~754.50 kbps avg
Видео CD2: 688x512 (1.34:1), 25 fps, XviD build 50 ~1310 kbps avg, 0.15 bit/pixel
Аудио CD2: 48 kHz, DTS, 5 ch, ~754.50 kbps avg






CD1



CD2



Автор рипа:



   Похожие торренты   Торрент   Размер 
В этой теме нет новых непрочитанных сообщений. Золотая мина (1977) DVDRip-AVC от ExKinoRay

270 | 16

3.16 ГБ

В этой теме нет новых непрочитанных сообщений. Золотая мина (1977) DVDRip dy NK | Реставрация

47 | 7

2.6 ГБ

В этой теме нет новых непрочитанных сообщений. Золотая мина (1977) DVD 9 | Реставрация

15 | 5

7.12 ГБ

В этой теме нет новых непрочитанных сообщений. Золотая курица / Золотая цыпочка / Gam gai / Golden Chicken (2002) DVDRip | L1

21 | 2

2.05 ГБ

В этой теме нет новых непрочитанных сообщений. Мина начинает тикать / Landmine Goes Click (2015) WEBRip | L2

840 | 61

1.46 ГБ

В этой теме нет новых непрочитанных сообщений. Золотая антилопа (1954) DVDRip

96 | 22

372.36 МБ

В этой теме нет новых непрочитанных сообщений. Золотая цепь (1986) DVDRip

12 | 14

1.36 ГБ




Вы не можете начинать темы
Вы не можете отвечать на сообщения
Вы не можете редактировать свои сообщения
Вы не можете удалять свои сообщения
Вы не можете добавлять вложения

Перейти:  
Для Мосгорсуда, Роскомнадзора и рекламодателей: mosgorsud-torrent[собачка]yandex.ru
 Вход
ppkBB3cker v.2 © 2008-2014 @ PPK
[ Time : 0.032s | 14 Queries | GZIP : Off ]

Торрент трекер RUTOR.IN, Не можете зайти на rutor.org? Какой новый адрес рутор? Какое зеркало рутор? Не работает rutor.org и зеркала? Тогда наш торрент специально для вас. Rutor.in неофициальное зеркало rutor. В случае если у Вас заблокирован rutor или вдруг Вы не можете на него зайти, то Вы без труда сможете скачать бесплатно и без рекламы последние новинки кино, игр, сериалов и прочего у нас, на Rutor.in. Не нужно использовать прокси, чтобы зайти на рутор, достаточно воспользоваться нашим ресурсом. Все новые фильмы, игры, сериалы, книги и музыка за 2013 и 2014 годы через торрент бесплатно. Скачивайте фильмы в хорошем качестве, игры для пк, xbox, playstation без регистрации. У нас вы найдете новые Зарубежные сериалы и Русские сериалы 2013, 2014, 2015 годов. Оставайтесь с нами, качайте любимые фильмы, игры, сериалы, книги и музыку.