img image001 image001 image001 image001 image001 image001 image001 image001 image001 image001 image001 image001 image001 image001 image001

Planets Sun Sun Sun
Статистика раздачи
Автор: Снежана | Размер: 8.73 ГБ | Добавлен: 24 июл 2013
Раздают: 12    Качают: 5
Скачать торрент
Скачать торрент
Описание торрента

СообщениеДобавлено: 24 июл 2013 

На игре / На игре 2. Новый уровень (2009/2010) BDRip [720p/DVD5] от Iriy



Жанр: боевик, приключения
Год выпуска:2009/2010
Продолжительность: 01:34:06 | 01:26:30

Режиссёр: Павел Санаев

В ролях: Сергей Чирков, Марина Петренко, Павел Прилучный, Евгений Харланов, Тихон Жизневский, Нодар Сирадзе, Алексей Бардуков, Агния Дитковските, Виктор Вержбицкий, Борис Тенин

--------------------------------------------------------------------------------------
На игре (2009)

Сюжет фильма:

После оглушительной победы на турнире по киберспорту команде геймеров вручают диски с только что разработанной игрой. Запустив игру, каждый из них подвергается воздействию, переводящему их игровые способности в реальные. Теперь и в жизни они лучшие бойцы, стрелки и гонщики.

Данное событие не остается незамеченным. Властные структуры путем шантажа, обмана и подкупа предлагают геймерам «работу». Но как только обман раскрывается, становится понятно, что они не герои, спасающие страну, а банальные наемные убийцы. Встает вопрос: как быть дальше? К тому же дисков у производителя еще много, и появление таких же, как они, профи - это вопрос времени.

Теперь перед геймерами стоит задача найти тираж и... либо уничтожить его, либо, создав и возглавив целую армию геймеров, диктовать свою волю... Команда разделилась. Каждый идет к своей цели.



Семпл

--------------------------------------------------------------------------------------
На игре 2. Новый уровень (2010)

Сюжет фильма:

После проведения спецоперации, во время которой был убит один из членов команды, у геймеров начинается другая жизнь. Каждый из них понимает - они работают на крупный преступный синдикат.

За дисками теперь охотятся все - и властные структуры, и геймеры. Задача - не допустить, чтобы такой материал попал за границу. Часть команды решает забрать их себе и сформировать собственную подконтрольную армию. Вампир и Рита пытаются им помешать.

Теперь в команде - каждый сам за себя.



Семпл

Релиз от:

Качество видео: BDRip ((источник: / Blu-Ray Disc)
Формат видео: MKV
Видео:
На игре: AVC, x264, 1280x544 (2.35:1), 24.000 fps, 6 012 Kbps, 0.360 bit/pixel
На игре 2: Новый уровень: AVC, x264, 1280x544 (2.35:1), 23.976 fps, 6 353 Kbps, 0.381 bit/pixel
Аудио:
На игре: Русский, AC3, 48,0 KHz, 640 Kbps, 6 channels
[color=darkred]На игре 2: Новый уровень:[/color] Русский, AC3, 48,0 KHz, 640 Kbps, 6 channels

General
Complete name : Na.Igre.2010.Blu-Ray.720p.x264.AC3.by.Iriy.mkv
Format : Matroska
File size : 4.36 GiB
Duration : 1h 34mn
Overall bit rate : 6 638 Kbps
Encoded date : UTC 2010-12-11 20:14:08
Writing application : mkvmerge v3.3.0 ('Language') built on Mar 24 2010 14:59:24
Writing library : libebml v0.8.0 + libmatroska v0.9.0

Video
ID : 1
Format : AVC
Format/Info : Advanced Video Codec
Format profile : High@L4.1
Format settings, CABAC : Yes
Format settings, ReFrames : 10 frames
Codec ID : V_MPEG4/ISO/AVC
Duration : 1h 34mn
Bit rate : 6 012 Kbps
Width : 1 280 pixels
Height : 544 pixels
Display aspect ratio : 2.35:1
Frame rate : 24.000 fps
Color space : YUV
Chroma subsampling : 4:2:0
Bit depth : 8 bits
Scan type : Progressive
Bits/(Pixel*Frame) : 0.360
Stream size : 3.86 GiB (88%)
Writing library : x264 core 98 r1649 c54c47d
Encoding settings : cabac=1 / ref=10 / deblock=1:-1:-1 / analyse=0x3:0x113 / me=umh / subme=8 / psy=1 / psy_rd=1.20:1.20 / mixed_ref=1 / me_range=8 / chroma_me=1 / trellis=1 / 8x8dct=1 / cqm=0 / deadzone=21,11 / fast_pskip=0 / chroma_qp_offset=-4 / threads=6 / sliced_threads=0 / nr=0 / decimate=0 / interlaced=0 / constrained_intra=0 / bframes=4 / b_pyramid=2 / b_adapt=2 / b_bias=0 / direct=2 / weightb=1 / weightp=2 / keyint=350 / keyint_min=100 / scenecut=20 / intra_refresh=0 / rc_lookahead=40 / rc=2pass / mbtree=1 / bitrate=6012 / ratetol=1.0 / qcomp=0.60 / qpmin=10 / qpmax=51 / qpstep=11 / cplxblur=20.0 / qblur=0.5 / ip_ratio=1.00 / aq=1:1.00
Language : Russian

Audio
ID : 2
Format : AC-3
Format/Info : Audio Coding 3
Mode extension : CM (complete main)
Codec ID : A_AC3
Duration : 1h 34mn
Bit rate mode : Constant
Bit rate : 640 Kbps
Channel(s) : 6 channels
Channel positions : Front: L C R, Side: L R, LFE
Sampling rate : 48.0 KHz
Bit depth : 16 bits
Stream size : 431 MiB (10%)
Title : Дубляж
Language : Russian

-----------------------------------------------------------
General
Complete name : Na.Igre.2.Novii.Uroven.2010.Blu-Ray.720p.x264.AC3.by.Iriy.mkv
Format : Matroska
File size : 4.37 GiB
Duration : 1h 29mn
Overall bit rate : 6 978 Kbps
Encoded date : UTC 2010-12-12 09:07:00
Writing application : mkvmerge v3.3.0 ('Language') built on Mar 24 2010 14:59:24
Writing library : libebml v0.8.0 + libmatroska v0.9.0

Video
ID : 2
Format : AVC
Format/Info : Advanced Video Codec
Format profile : High@L4.1
Format settings, CABAC : Yes
Format settings, ReFrames : 10 frames
Codec ID : V_MPEG4/ISO/AVC
Duration : 1h 29mn
Bit rate : 6 353 Kbps
Width : 1 280 pixels
Height : 544 pixels
Display aspect ratio : 2.35:1
Frame rate : 23.976 fps
Color space : YUV
Chroma subsampling : 4:2:0
Bit depth : 8 bits
Scan type : Progressive
Bits/(Pixel*Frame) : 0.381
Stream size : 3.88 GiB (89%)
Writing library : x264 core 98 r1649 c54c47d
Encoding settings : cabac=1 / ref=10 / deblock=1:-1:-1 / analyse=0x3:0x113 / me=umh / subme=8 / psy=1 / psy_rd=1.20:1.20 / mixed_ref=1 / me_range=8 / chroma_me=1 / trellis=1 / 8x8dct=1 / cqm=0 / deadzone=21,11 / fast_pskip=0 / chroma_qp_offset=-4 / threads=6 / sliced_threads=0 / nr=0 / decimate=0 / interlaced=0 / constrained_intra=0 / bframes=4 / b_pyramid=2 / b_adapt=2 / b_bias=0 / direct=2 / weightb=1 / weightp=2 / keyint=350 / keyint_min=100 / scenecut=20 / intra_refresh=0 / rc_lookahead=40 / rc=2pass / mbtree=1 / bitrate=6353 / ratetol=1.0 / qcomp=0.60 / qpmin=10 / qpmax=51 / qpstep=11 / cplxblur=20.0 / qblur=0.5 / ip_ratio=1.00 / aq=1:1.00
Language : Russian

Audio
ID : 1
Format : AC-3
Format/Info : Audio Coding 3
Mode extension : CM (complete main)
Codec ID : A_AC3
Duration : 1h 29mn
Bit rate mode : Constant
Bit rate : 640 Kbps
Channel(s) : 6 channels
Channel positions : Front: L C R, Side: L R, LFE
Sampling rate : 48.0 KHz
Bit depth : 16 bits
Stream size : 410 MiB (9%)
Language : Russian






На игре



На игре 2: Новый уровень





   Похожие торренты   Торрент   Размер 
В этой теме нет новых непрочитанных сообщений. На игре / На игре 2. Новый уровень (2009/2010) BDRip от HQCLUB

94 | 9

2.91 ГБ

В этой теме нет новых непрочитанных сообщений. На игре / На игре 2. Новый уровень (2009/2010) BDRip-AVC от New-Team

393 | 32

4.36 ГБ

В этой теме нет новых непрочитанных сообщений. На игре 2. Новый уровень (2010) BDRip от HQRips

980 | 39

1.46 ГБ

В этой теме нет новых непрочитанных сообщений. На игре 2. Новый уровень (2010) BDRip 1080 от Element team

77 | 5

7.58 ГБ

В этой теме нет новых непрочитанных сообщений. На игре 2. Новый уровень (2010) DVD9

4 | 4

5.7 ГБ

В этой теме нет новых непрочитанных сообщений. На игре 2. Новый уровень (2010) DVDRip

29 | 8

699.72 МБ

В этой теме нет новых непрочитанных сообщений. На игре: Дилогия (2009/2010) BDRip 1080p

26 | 9

8.73 ГБ




Вы не можете начинать темы
Вы не можете отвечать на сообщения
Вы не можете редактировать свои сообщения
Вы не можете удалять свои сообщения
Вы не можете добавлять вложения

Перейти:  
Для Мосгорсуда, Роскомнадзора и рекламодателей: mosgorsud-torrent[собачка]yandex.ru
 Вход
ppkBB3cker v.2 © 2008-2014 @ PPK
[ Time : 0.029s | 16 Queries | GZIP : Off ]

Торрент трекер RUTOR.IN, Не можете зайти на rutor.org? Какой новый адрес рутор? Какое зеркало рутор? Не работает rutor.org и зеркала? Тогда наш торрент специально для вас. Rutor.in неофициальное зеркало rutor. В случае если у Вас заблокирован rutor или вдруг Вы не можете на него зайти, то Вы без труда сможете скачать бесплатно и без рекламы последние новинки кино, игр, сериалов и прочего у нас, на Rutor.in. Не нужно использовать прокси, чтобы зайти на рутор, достаточно воспользоваться нашим ресурсом. Все новые фильмы, игры, сериалы, книги и музыка за 2013 и 2014 годы через торрент бесплатно. Скачивайте фильмы в хорошем качестве, игры для пк, xbox, playstation без регистрации. У нас вы найдете новые Зарубежные сериалы и Русские сериалы 2013, 2014, 2015 годов. Оставайтесь с нами, качайте любимые фильмы, игры, сериалы, книги и музыку.