img image001 image001 image001 image001 image001 image001 image001 image001 image001 image001 image001 image001 image001 image001 image001

Planets Sun Sun Sun
Статистика раздачи
Автор: Снежана | Размер: 2.29 ГБ | Добавлен: 24 июл 2013
Раздают: 0    Качают: 3
Скачать торрент
Скачать торрент
Описание торрента

СообщениеДобавлено: 24 июл 2013 

#77

Свадьба в Малиновке (1967) BDRip-AVC от NOLIMITS-TEAM


Информация о фильме
Название: Свадьба в Малиновке
Год выхода: 1967
Жанр: Мюзикл, комедия
Режиссер: Андрей Тутышкин
В ролях: Владимир Самойлов, Людмила Алфимова, Валентина Лысенко, Евгений Лебедев, Зоя Фёдорова, Гелий Сысоев, Михаил Пуговкин, Николай Сличенко, Андрей Абрикосов, Григорий Абрикосов, Михаил Водяной, Тамара Носова, Эмма Трейвас, Алексей Смирнов, Маргарита Криницына, Александр Орлов, Юрий Шепелев, Любовь Тищенко, Александр Захаров, Раиса Пироженко, Алексей Захаров, Николай Пишванов, Лев Степанов, Валентина Николаенко

О фильме:
Идет гражданская воина. В украинской деревне то и дело меняется власть. Чтобы разделаться с бандой головорезов, красный командир уговаривает девушку Яринку разыграть ее свадьбу с атаманом…

Выпущено: СССР
Продолжительность: 01:32:19
Перевод: Оригинал
Субтитры: Русские, Английские



Файл
Формат: MKV
Качество: BDRip-AVC [Рип с Blu-ray 1080p]
Общий битрейт: 3557 Kbps
Видео: AVC, 1024x432 (2.35), 23.976 fps, 3038 Kbps (0.286 bit/pixel)
Звук: AC-3, 48.0 KHz, 6 ch, 448 Kbps, CBR (Russian)
Размер: 2.29 GB

Дополнительно
Релиз Группа | Автор Рипа:
Премьера (мир): 13 ноября 1967






Формат : Matroska
Размер файла : 2,29 Гбайт
Продолжительность : 1 ч. 32 м.
Общий поток : 3557 Кбит/сек
Название фильма : BDRip by MaxVeLL
Дата кодирования : UTC 2010-12-21 09:01:09
Программа кодирования : mkvmerge v4.0.0 ('The Stars were mine') збірка від Jun 6 2010 16:18:42
Библиотека кодирования : libebml v1.0.0 + libmatroska v1.0.0

Видео
Идентификатор : 1
Формат : AVC
Формат/Информация : Advanced Video Codec
Профиль формата : High@L5.1
Параметр CABAC формата : Да
Параметр ReFrames формата : 16 кадры
Идентификатор кодека : V_MPEG4/ISO/AVC
Продолжительность : 1 ч. 32 м.
Вид битрейта : Переменный
Битрейт : 3038 Кбит/сек
Максимальный битрейт : 3896 Кбит/сек
Ширина : 1024 пикс.
Высота : 432 пикс.
Соотношение сторон : 2,35:1
Частота кадров : 23,976 кадр/сек
Стандарт вещания : NTSC
Цветовое пространство : YUV
Подвыборка цветности : 4:2:0
Битовая глубина : 8 бит
Тип развёртки : Прогрессивная
Бит/(Пиксели*Кадры) : 0.286
Размер потока : 1,96 Гбайт (85%)
Язык : Russian
Основные цвета : BT.709-5, BT.1361, IEC 61966-2-4, SMPTE RP177
Характеристики трансфера : BT.709-5, BT.1361
Коэффициенты матрицы : BT.709-5, BT.1361, IEC 61966-2-4 709, SMPTE RP177

Аудио
Идентификатор : 2
Формат : AC-3
Формат/Информация : Audio Coding 3
Расширение режима : CM (complete main)
Идентификатор кодека : A_AC3
Продолжительность : 1 ч. 32 м.
Вид битрейта : Постоянный
Битрейт : 448 Кбит/сек
Канал(ы) : 6 канала(ов)
Расположение каналов : Front: L C R, Side: L R, LFE
Частота : 48,0 КГц
Битовая глубина : 16 бит
Метод сжатия : С потерями
Размер потока : 296 Мбайт (13%)
Язык : Russian



   Похожие торренты   Торрент   Размер 
В этой теме нет новых непрочитанных сообщений. Свадьба в Малиновке (1967) BDRip от HQCLUB

155 | 20

1.45 ГБ

В этой теме нет новых непрочитанных сообщений. Свадьба в Малиновке (1967) BDRip от HQ-ViDEO

625 | 29

1.46 ГБ

В этой теме нет новых непрочитанных сообщений. Свадьба в Малиновке (1967) BDRip-AVC от FireBit

7 | 11

1.37 ГБ

В этой теме нет новых непрочитанных сообщений. Свадьба в Малиновке (1967) BDRip от Youtracker

181 | 13

745.18 МБ

В этой теме нет новых непрочитанных сообщений. Свадьба в Малиновке (1967) BDRip 1080p

248 | 23

4.37 ГБ

В этой теме нет новых непрочитанных сообщений. Свадьба в Малиновке (1967) BDRip-AVC от DHT-Movies

82 | 9

2.6 ГБ

В этой теме нет новых непрочитанных сообщений. Свадьба в Малиновке (1967) BDRip от HELLYWOOD

48 | 8

1.45 ГБ




Вы не можете начинать темы
Вы не можете отвечать на сообщения
Вы не можете редактировать свои сообщения
Вы не можете удалять свои сообщения
Вы не можете добавлять вложения

Перейти:  
Для Мосгорсуда, Роскомнадзора и рекламодателей: mosgorsud-torrent[собачка]yandex.ru
 Вход
ppkBB3cker v.2 © 2008-2014 @ PPK
[ Time : 0.018s | 15 Queries | GZIP : Off ]

Торрент трекер RUTOR.IN, Не можете зайти на rutor.org? Какой новый адрес рутор? Какое зеркало рутор? Не работает rutor.org и зеркала? Тогда наш торрент специально для вас. Rutor.in неофициальное зеркало rutor. В случае если у Вас заблокирован rutor или вдруг Вы не можете на него зайти, то Вы без труда сможете скачать бесплатно и без рекламы последние новинки кино, игр, сериалов и прочего у нас, на Rutor.in. Не нужно использовать прокси, чтобы зайти на рутор, достаточно воспользоваться нашим ресурсом. Все новые фильмы, игры, сериалы, книги и музыка за 2013 и 2014 годы через торрент бесплатно. Скачивайте фильмы в хорошем качестве, игры для пк, xbox, playstation без регистрации. У нас вы найдете новые Зарубежные сериалы и Русские сериалы 2013, 2014, 2015 годов. Оставайтесь с нами, качайте любимые фильмы, игры, сериалы, книги и музыку.