img image001 image001 image001 image001 image001 image001 image001 image001 image001 image001 image001 image001 image001 image001 image001

Planets Sun Sun Sun
Статистика раздачи
Автор: Снежана | Размер: 2.44 ГБ | Добавлен: 24 июл 2013
Раздают: 11    Качают: 5
Скачать торрент
Скачать торрент
Описание торрента

СообщениеДобавлено: 24 июл 2013 

#77

Сказка о Звездном мальчике (1983) SATRip

Информация о фильме
Название: Сказка о Звездном мальчике
Год выпуска: 1983
Жанр: Сказка, Детский, Семейный
Режиссер: Леонид Нечаев
В ролях: Павел Чернышев, Лариса Понаморенко, Ваня Пчёлкин, Игорь Сысоев, Ангелина Поленчукова, Дима Волков, Иван Мацкевич, Гражина Байкштите и др

Описание:

По мотивам сказок Оскара Уайльда.

Об истинных человеческих ценностях: духовной красоте человека, доброте его сердца, способности любить бескорыстно...
В одной не очень отдаленной галактике, достигшей невероятного прогресса в общественной жизни, возникла проблема - на Земле находится мощнейший источник возмущения. Наши люди всё ещё не научились жить спокойно и размеренно - они испытывают огромное количество различных чувств, эмоций, которые не дают спокойно жить нашим космическим соседям, и тогда на галактическом совете было решено отправить на Землю диверсанта – ребёнка....



Страна: СССР
Студия: Беларусьфильм
Продолжительность: 01:05:29+01:03:07
Перевод: Не требуется

Семпл

Файл
Качество: SATRip
Формат: AVI
Видео кодек: XviD
Аудио кодек: AC3
Видео: 720x540 (1.33:1), 25 fps, XviD MPEG-4 ~2300 kbps avg
Аудио: AC3, 256 kbps, 48.0 KHz, 2 channels

General
Complete name : E:UPLOADEDIPTVXviDСказка.о.Звездном.Мальчике.1983.IPTV.XviD-ilyaсказка.о.звездном.мальчике.1.серия.1983.iptv.xvid-ilya.avi
Format : AVI
Format/Info : Audio Video Interleave
File size : 1.20 GiB
Duration : 1h 5mn
Overall bit rate : 2 629 Kbps
Writing library : VirtualDub build 29808/release

Video
ID : 0
Format : MPEG-4 Visual
Format profile : AdvancedSimple@L5
Format settings, BVOP : Yes
Format settings, QPel : No
Format settings, GMC : No warppoints
Format settings, Matrix : Default (H.263)
Muxing mode : Packed bitstream
Codec ID : XVID
Codec ID/Hint : XviD
Duration : 1h 5mn
Bit rate : 2 366 Kbps
Width : 720 pixels
Height : 540 pixels
Display aspect ratio : 4:3
Frame rate : 25.000 fps
Resolution : 24 bits
Colorimetry : 4:2:0
Scan type : Progressive
Bits/(Pixel*Frame) : 0.243
Stream size : 1.08 GiB (90%)
Writing library : XviD 1.2.0.dev47 (UTC 2006-11-01)

Audio
ID : 1
Format : AC-3
Format/Info : Audio Coding 3
Codec ID : 2000
Duration : 1h 4mn
Bit rate mode : Constant
Bit rate : 256 Kbps
Channel(s) : 2 channels
Channel positions : L R
Sampling rate : 48.0 KHz
Stream size : 119 MiB (10%)
Alignment : Split accross interleaves
Interleave, duration : 40 ms (1.01 video frame)
Interleave, preload duration : 500 ms

Скриншоты:



Спасибо большое ilya_l!




   Похожие торренты   Торрент   Размер 
В этой теме нет новых непрочитанных сообщений. Сказка о Звездном мальчике (1983) SATRip-AVC

25 | 13

2.18 ГБ

В этой теме нет новых непрочитанных сообщений. Сказка о Звездном мальчике (1983) DVD9

16 | 3

6.94 ГБ

В этой теме нет новых непрочитанных сообщений. OST. Саундтреки к фильму Сказка о звёздном мальчике (1983) MP3 от Files-x

7 | 3

32.07 МБ

В этой теме нет новых непрочитанных сообщений. Сказка странствий (1983) DVDRip-AVC

131 | 4

3.82 ГБ

В этой теме нет новых непрочитанных сообщений. Сказка странствий (1983) DVD5 | Реставрация

27 | 16

4.27 ГБ

В этой теме нет новых непрочитанных сообщений. Сказка странствий (1983) DVDRip-AVC | Реставрация

462 | 11

2.33 ГБ

В этой теме нет новых непрочитанных сообщений. Сказка странствий (1983) DVDRip от Odyzic и MyWorldFilm

20 | 2

668.64 МБ




Вы не можете начинать темы
Вы не можете отвечать на сообщения
Вы не можете редактировать свои сообщения
Вы не можете удалять свои сообщения
Вы не можете добавлять вложения

Перейти:  
Для Мосгорсуда, Роскомнадзора и рекламодателей: mosgorsud-torrent[собачка]yandex.ru
 Вход
ppkBB3cker v.2 © 2008-2014 @ PPK
[ Time : 0.026s | 15 Queries | GZIP : Off ]

cron