img image001 image001 image001 image001 image001 image001 image001 image001 image001 image001 image001 image001 image001 image001 image001

Planets Sun Sun Sun
Статистика раздачи
Автор: Снежана | Размер: 2.18 ГБ | Добавлен: 24 июл 2013
Раздают: 25    Качают: 13
Скачать торрент
Скачать торрент
Описание торрента

СообщениеДобавлено: 24 июл 2013 

#77

Сказка о Звездном мальчике (1983) SATRip-AVC

Информация о фильме
Название: Сказка о Звездном мальчике
Год выпуска: 1983
Жанр: Сказка, Детский, Семейный
Режиссер: Леонид Нечаев
В ролях: Павел Чернышев, Лариса Понаморенко, Ваня Пчёлкин, Игорь Сысоев, Ангелина Поленчукова, Дима Волков, Иван Мацкевич, Гражина Байкштите и др

Описание:

По мотивам сказок Оскара Уайльда.

Об истинных человеческих ценностях: духовной красоте человека, доброте его сердца, способности любить бескорыстно...
В одной не очень отдаленной галактике, достигшей невероятного прогресса в общественной жизни, возникла проблема - на Земле находится мощнейший источник возмущения. Наши люди всё ещё не научились жить спокойно и размеренно - они испытывают огромное количество различных чувств, эмоций, которые не дают спокойно жить нашим космическим соседям, и тогда на галактическом совете было решено отправить на Землю диверсанта – ребёнка....



Страна: СССР
Студия: Беларусьфильм
Продолжительность: 01:05:29+01:03:07
Перевод: Не требуется

Доп. информация:

Видео-поток получен через IPTV (канал "Теленяня") и без конвертации перепакован в MKV-контейнер (с помощью TS-Doctor).
Аудио-поток конвертирован из mp2 в mp3 (Sound Forge 10).

Отличия данного релиза от Сказка о Звездном мальчике (1983) SATRip:

1. оригинальный формат AVC (против XviD-кодирования)
2. лучшее качество видео (видео-поток не конвертировался)
3. отсутствие черной рамки (letterbox)
4. значение длины кадра в пискелях делится без остатка на 16
5. mp3-аудио (использован 224 kbps - максимально допустимый для раздела битрейт, поскольку музыка в этом фильме столь же важна, сколь картинка).
6. отсутствие рывков видео, которые иногда встречались в пред. рипе
7. рекомендованный размер - 2.18 GB (1/2 DVD5)

Семпл

Файл
Качество видео: SATRip-AVC
Формат видео: MKV
Видео: 720x576@785x576, (1.36:1), 25 fps, AVC (Main@L3.0), ~ 2200 kbps
Аудио: MP3, 224 kbps, 48.0 Khz, 2 channels

General
Complete name : E:UPLOADEDIPTVPROPERСказка.о.Звездном.Мальчике.1983.IPTV.H264-ilyaсказка.о.звездном.мальчике.1.серия.1983.iptv.h264-ilya.mkv
Format : Matroska
File size : 1.10 GiB
Duration : 1h 4mn
Overall bit rate : 2 426 Kbps
Encoded date : UTC 2010-05-01 15:38:22
Writing application : mkvmerge v2.2.0 ('Turn It On Again') built on Mar 4 2008 12:58:26
Writing library : libebml v0.7.7 + libmatroska v0.8.1

Video
ID : 1
Format : AVC
Format/Info : Advanced Video Codec
Format profile : Main@L3.0
Format settings, CABAC : Yes
Format settings, ReFrames : 4 frames
Muxing mode : Container profile=Unknown@3.0
Codec ID : V_MPEG4/ISO/AVC
Duration : 1h 4mn
Bit rate : 2 154 Kbps
Width : 720 pixels
Height : 576 pixels
Display aspect ratio : 4:3
Original display aspect ratio : 4:3
Frame rate : 25.000 fps
Standard : Component
Resolution : 24 bits
Colorimetry : 4:2:0
Scan type : Progressive
Bits/(Pixel*Frame) : 0.208
Stream size : 1 000 MiB (89%)
Language : English

Audio
ID : 2
Format : MPEG Audio
Format version : Version 1
Format profile : Layer 3
Codec ID : A_MPEG/L3
Codec ID/Hint : MP3
Duration : 1h 4mn
Bit rate mode : Constant
Bit rate : 224 Kbps
Channel(s) : 2 channels
Sampling rate : 48.0 KHz
Resolution : 16 bits
Stream size : 104 MiB (9%)

Скриншоты:



Спасибо большое ilya_l!




   Похожие торренты   Торрент   Размер 
В этой теме нет новых непрочитанных сообщений. Сказка о Звездном мальчике (1983) SATRip

11 | 5

2.44 ГБ

В этой теме нет новых непрочитанных сообщений. Сказка о Звездном мальчике (1983) DVD9

16 | 3

6.94 ГБ

В этой теме нет новых непрочитанных сообщений. OST. Саундтреки к фильму Сказка о звёздном мальчике (1983) MP3 от Files-x

7 | 3

32.07 МБ

В этой теме нет новых непрочитанных сообщений. Сказка странствий (1983) DVDRip-AVC

131 | 4

3.82 ГБ

В этой теме нет новых непрочитанных сообщений. Сказка странствий (1983) DVD5 | Реставрация

27 | 16

4.27 ГБ

В этой теме нет новых непрочитанных сообщений. Сказка странствий (1983) DVDRip-AVC | Реставрация

462 | 11

2.33 ГБ

В этой теме нет новых непрочитанных сообщений. Сказка странствий (1983) DVDRip от Odyzic и MyWorldFilm

20 | 2

668.64 МБ




Вы не можете начинать темы
Вы не можете отвечать на сообщения
Вы не можете редактировать свои сообщения
Вы не можете удалять свои сообщения
Вы не можете добавлять вложения

Перейти:  
Для Мосгорсуда, Роскомнадзора и рекламодателей: mosgorsud-torrent[собачка]yandex.ru
 Вход
ppkBB3cker v.2 © 2008-2014 @ PPK
[ Time : 0.049s | 15 Queries | GZIP : Off ]

Торрент трекер RUTOR.IN, Не можете зайти на rutor.org? Какой новый адрес рутор? Какое зеркало рутор? Не работает rutor.org и зеркала? Тогда наш торрент специально для вас. Rutor.in неофициальное зеркало rutor. В случае если у Вас заблокирован rutor или вдруг Вы не можете на него зайти, то Вы без труда сможете скачать бесплатно и без рекламы последние новинки кино, игр, сериалов и прочего у нас, на Rutor.in. Не нужно использовать прокси, чтобы зайти на рутор, достаточно воспользоваться нашим ресурсом. Все новые фильмы, игры, сериалы, книги и музыка за 2013 и 2014 годы через торрент бесплатно. Скачивайте фильмы в хорошем качестве, игры для пк, xbox, playstation без регистрации. У нас вы найдете новые Зарубежные сериалы и Русские сериалы 2013, 2014, 2015 годов. Оставайтесь с нами, качайте любимые фильмы, игры, сериалы, книги и музыку.