img image001 image001 image001 image001 image001 image001 image001 image001 image001 image001 image001 image001 image001 image001 image001

Planets Sun Sun Sun
Статистика раздачи
Автор: Снежана | Размер: 698.53 МБ | Добавлен: 24 июл 2013
Раздают: 3    Качают: 2
Скачать торрент
Скачать торрент
Описание торрента

СообщениеДобавлено: 24 июл 2013 

#77

Информация о фильме
Название: Ёлки
Год выхода: 2010
Жанр: комедия
Режиссер: Тимур Бекмамбетов, Александр Войтинский, Дмитрий Киселев
В ролях: Иван Ургант, Сергей Светлаков, Вера Брежнева, Алина Булынко, Сергей Гармаш, Артур Смольянинов, Екатерина Вилкова, Мария Порошина, Дато Бахтадзе, Александр Головин.

О фильме:
События самой новогодней комедии ЁЛКИ происходят в 11 городах: Калининграде, Казани, Перми, Уфе, Бавлах, Екатеринбурге, Красноярске, Якутске, Новосибирске, Санкт-Петербурге и Москве. Герои фильма — таксист и поп-дива, бизнесмен и актер, сноубордист и лыжник, студент и пенсионерка, пожарный и директриса, вор и милиционер, гастарбайтер и Президент России. Все они оказываются в самый канун Нового года в очень непростой ситуации, выйти из которой им поможет только чудо… или Теория шести рукопожатий, согласно которой каждый человек на земле знает другого через шесть знакомых.

Продолжительность: 1:26:00
Перевод: не требуется

Файл
Контейнер: MP4
Кодек: x264
Качество: DVDRip-AVC
Видео: AVC at 990 Кбит/сек VBR, 720x448@1024x448 (2.285) at 25.000 fps, 0.123 bit/pixel
Звук: AAC Dolby Pro Logic II, at 144 Кбит/сек ABR, 2 канала(ов), 48,0 КГц
Субтитры: нет



Общее
Полное имя : Ёлки (2010) DVDRip-AVC.mp4
Формат : MPEG-4
Профиль формата : Base Media
Идентификатор кодека : isom
Размер файла : 699 Мбайт
Продолжительность : 1 ч. 26 м.
Общий поток : 1136 Кбит/сек
Дата кодирования : UTC 2010-12-31 22:34:59
Дата пометки : UTC 2010-12-31 22:34:59

Видео
Идентификатор : 1
Формат : AVC
Формат/Информация : Advanced Video Codec
Профиль формата : High@L5.1
Параметр CABAC формата : Да
Параметр ReFrames формата : 16 кадры
Идентификатор кодека : avc1
Идентификатор кодека/Информация : Advanced Video Coding
Продолжительность : 1 ч. 26 м.
Вид битрейта : Переменный
Битрейт : 990 Кбит/сек
Максимальный битрейт : 6314 Кбит/сек
Ширина : 720 пикс.
Высота : 448 пикс.
Соотношение сторон : 2,25:1
Оригинальное соотношение сторон : 2,25:1
Режим частоты кадров : Постоянный
Частота кадров : 25,000 кадр/сек
Цветовое пространство : YUV
Подвыборка цветности : 4:2:0
Битовая глубина : 8 бит
Тип развёртки : Прогрессивная
Бит/(Пиксели*Кадры) : 0.123
Размер потока : 609 Мбайт (87%)
Заголовок : freeisland.org
Библиотека кодирования : x264 core 112 r1834 a51816a
Настройки программы : cabac=1 / ref=16 / deblock=1:-1:-1 / analyse=0x3:0x133 / me=esa / subme=10 / psy=1 / psy_rd=1.00:0.00 / mixed_ref=1 / me_range=64 / chroma_me=1 / trellis=2 / 8x8dct=1 / cqm=0 / deadzone=21,11 / fast_pskip=1 / chroma_qp_offset=-2 / threads=12 / sliced_threads=0 / nr=0 / decimate=1 / interlaced=0 / constrained_intra=0 / bframes=10 / b_pyramid=2 / b_adapt=2 / b_bias=0 / direct=2 / weightb=1 / open_gop=0 / weightp=2 / keyint=250 / keyint_min=25 / scenecut=40 / intra_refresh=0 / rc=2pass / mbtree=0 / bitrate=990 / ratetol=1.0 / qcomp=1.00 / qpmin=3 / qpmax=45 / qpstep=4 / cplxblur=20.0 / qblur=0.5 / ip_ratio=1.40 / pb_ratio=1.30 / aq=1:1.00 / zones=121800,129007,q=40
Дата кодирования : UTC 2010-12-31 11:48:35
Дата пометки : UTC 2010-12-31 22:35:09

Аудио
Идентификатор : 2
Формат : AAC
Формат/Информация : Advanced Audio Codec
Профиль формата : LC
Идентификатор кодека : 40
Продолжительность : 1 ч. 26 м.
Вид битрейта : Переменный
Битрейт : 144 Кбит/сек
Максимальный битрейт : 170 Кбит/сек
Канал(ы) : 2 канала(ов)
Расположение каналов : Front: L R
Частота : 48,0 КГц
Метод сжатия : С потерями
Размер потока : 87,6 Мбайт (13%)
Заголовок : freeisland.org
Язык : Russian
Дата кодирования : UTC 2010-12-31 22:35:07
Дата пометки : UTC 2010-12-31 22:35:09

Меню
00:00:00.000 : 01
00:01:09.040 : 02
00:13:49.360 : 03
00:22:40.720 : 04
00:33:18.640 : 05
00:47:59.920 : 06
01:00:44.080 : 07
01:09:23.440 : 08
01:17:10.960 : 09







Релиз от:



   Похожие торренты   Торрент   Размер 
В этой теме нет новых непрочитанных сообщений. Ёлки (2010) DVDRip-AVC

431 | 25

1.47 ГБ

В этой теме нет новых непрочитанных сообщений. Hi-Fi feat. 3 XL PRO - Время не властно (OST - Ёлки). Клип (2010) DVDRip

0 | 3

126.07 МБ

В этой теме нет новых непрочитанных сообщений. Ёлки (2010) Blu-Ray

4 | 3

22.33 ГБ

В этой теме нет новых непрочитанных сообщений. Ёлки (2010) DVD5

3 | 2

4.16 ГБ

В этой теме нет новых непрочитанных сообщений. Ёлки (2010) HDRip

33 | 3

699.36 МБ

В этой теме нет новых непрочитанных сообщений. Ёлки (2010) BDRip-AVC

32 | 3

2.08 ГБ

В этой теме нет новых непрочитанных сообщений. VA - OST Ёлки (неофициальный сборник) (2010) МР3

3 | 3

92.63 МБ




Вы не можете начинать темы
Вы не можете отвечать на сообщения
Вы не можете редактировать свои сообщения
Вы не можете удалять свои сообщения
Вы не можете добавлять вложения

Перейти:  
Для Мосгорсуда, Роскомнадзора и рекламодателей: mosgorsud-torrent[собачка]yandex.ru
 Вход
ppkBB3cker v.2 © 2008-2014 @ PPK
[ Time : 0.013s | 13 Queries | GZIP : On ]
CGP output time : 0.035s | 5 Queries | GZIP : On

Торрент трекер RUTOR.IN, Не можете зайти на rutor.org? Какой новый адрес рутор? Какое зеркало рутор? Не работает rutor.org и зеркала? Тогда наш торрент специально для вас. Rutor.in неофициальное зеркало rutor. В случае если у Вас заблокирован rutor или вдруг Вы не можете на него зайти, то Вы без труда сможете скачать бесплатно и без рекламы последние новинки кино, игр, сериалов и прочего у нас, на Rutor.in. Не нужно использовать прокси, чтобы зайти на рутор, достаточно воспользоваться нашим ресурсом. Все новые фильмы, игры, сериалы, книги и музыка за 2013 и 2014 годы через торрент бесплатно. Скачивайте фильмы в хорошем качестве, игры для пк, xbox, playstation без регистрации. У нас вы найдете новые Зарубежные сериалы и Русские сериалы 2013, 2014, 2015 годов. Оставайтесь с нами, качайте любимые фильмы, игры, сериалы, книги и музыку.