img image001 image001 image001 image001 image001 image001 image001 image001 image001 image001 image001 image001 image001 image001 image001

Planets Sun Sun Sun
Статистика раздачи
Автор: Снежана | Размер: 1.37 ГБ | Добавлен: 24 июл 2013
Раздают: 7    Качают: 1
Скачать торрент
Скачать торрент
Описание торрента

СообщениеДобавлено: 24 июл 2013 

#77

Информация о фильме

Название: Пыль

Год выхода: 2005
Жанр: Драма, комедия
Режиссер: Сергей Лобан

В ролях: Алексей Подольский, Глеб Михайлов, Пётр Мамонов, Нина Елисова, Михаил Балинский, Лариса Пятницкая, Олег Новиков.

О фильме:
Герой фильма — неуклюжий неудачник, потрясающий русский Бивис то испуганно кивающий, то лепечущий: «я эт самое…». Бивиса и Бадхеда постоянно за кого-то принимают, берут у них интервью, вербуют в организации, проповедуют, пропагандируют политкорректные идеи, в то время как герои пусты, чисты, и от того неподвластны внешним воздействиям.
Нашего Лешу тоже постоянно принимают за кого-то, кем он не является. «Эх! Завидую я им! Свободное выросло поколение» — говорит правозащитник кивая на аутичного героя. Леша пассивен, Леша инфантилен, Леша — никто. Все, что происходит с ним — вариант классической «трагедии маленького человека», никому не нужного, никому не симпатичного, жалкого и отвратительного даже самому себе.


Страна: Россия
Студия: Свои 2000
Продолжительность: 01:49:48

Файл
Кодек: DivX
Качество: DVDRip
Видео: MPEG-4, 608x448, 1580 Kbps, 25.000 fps, 4:3
Звук: AC-3, 192 Kbps, 48.0 KHz, 2 channels

General
Complete name :
Format : AVI
Format/Info : Audio Video Interleave
File size : 1.37 GiB
Duration : 1h 49mn
Overall bit rate : 1 782 Kbps
Writing application : VirtualDubMod 1.5.10.2 (build 2540/release)
Writing library : VirtualDubMod build 2540/release

Video
ID : 0
Format : MPEG-4 Visual
Format settings, BVOP : Yes
Format settings, QPel : No
Format settings, GMC : No warppoints
Format settings, Matrix : Default (H.263)
Muxing mode : Packed bitstream
Codec ID : DX50
Codec ID/Hint : DivX 5
Duration : 1h 49mn
Bit rate : 1 580 Kbps
Width : 608 pixels
Height : 448 pixels
Display aspect ratio : 4:3
Frame rate : 25.000 fps
Color space : YUV
Chroma subsampling : 4:2:0
Bit depth : 8 bits
Scan type : Progressive
Compression mode : Lossy
Bits/(Pixel*Frame) : 0.232
Stream size : 1.21 GiB (89%)
Writing library : DivX 5.2.1 (WaffleDay) (UTC 2004-09-08)

Audio
ID : 1
Format : AC-3
Format/Info : Audio Coding 3
Mode extension : CM (complete main)
Codec ID : 2000
Duration : 1h 49mn
Bit rate mode : Constant
Bit rate : 192 Kbps
Channel(s) : 2 channels
Channel positions : Front: L R
Sampling rate : 48.0 KHz
Bit depth : 16 bits
Compression mode : Lossy
Stream size : 151 MiB (11%)
Alignment : Split accross interleaves
Interleave, duration : 40 ms (1.00 video frame)
Interleave, preload duration : 500 ms


Семпл




   Похожие торренты   Торрент   Размер 
В этой теме нет новых непрочитанных сообщений. Пыль (2005) DVDRip

76 | 6

1.45 ГБ

В этой теме нет новых непрочитанных сообщений. Пыль (2005) DVD5

2 | 2

4.05 ГБ

В этой теме нет новых непрочитанных сообщений. Пыль / Dhool (2003) DVDRip | P

36 | 9

2.05 ГБ

В этой теме нет новых непрочитанных сообщений. Серебристая пыль (1953) DVDRip

15 | 7

1.36 ГБ

В этой теме нет новых непрочитанных сообщений. Серебристая пыль (1953) DVDRip-AVC от New-Team

31 | 5

1.46 ГБ

В этой теме нет новых непрочитанных сообщений. Пыль войны / Dust of War (2013) DVDRip | L1

516 | 19

1.38 ГБ

В этой теме нет новых непрочитанных сообщений. Серебристая пыль (1953) DVDRip от New-Team

6 | 1

1.46 ГБ




Вы не можете начинать темы
Вы не можете отвечать на сообщения
Вы не можете редактировать свои сообщения
Вы не можете удалять свои сообщения
Вы не можете добавлять вложения

Перейти:  
Для Мосгорсуда, Роскомнадзора и рекламодателей: mosgorsud-torrent[собачка]yandex.ru
 Вход
ppkBB3cker v.2 © 2008-2014 @ PPK
[ Time : 0.059s | 14 Queries | GZIP : Off ]

Торрент трекер RUTOR.IN, Не можете зайти на rutor.org? Какой новый адрес рутор? Какое зеркало рутор? Не работает rutor.org и зеркала? Тогда наш торрент специально для вас. Rutor.in неофициальное зеркало rutor. В случае если у Вас заблокирован rutor или вдруг Вы не можете на него зайти, то Вы без труда сможете скачать бесплатно и без рекламы последние новинки кино, игр, сериалов и прочего у нас, на Rutor.in. Не нужно использовать прокси, чтобы зайти на рутор, достаточно воспользоваться нашим ресурсом. Все новые фильмы, игры, сериалы, книги и музыка за 2013 и 2014 годы через торрент бесплатно. Скачивайте фильмы в хорошем качестве, игры для пк, xbox, playstation без регистрации. У нас вы найдете новые Зарубежные сериалы и Русские сериалы 2013, 2014, 2015 годов. Оставайтесь с нами, качайте любимые фильмы, игры, сериалы, книги и музыку.