img image001 image001 image001 image001 image001 image001 image001 image001 image001 image001 image001 image001 image001 image001 image001

Planets Sun Sun Sun
Статистика раздачи
Автор: Снежана | Размер: 1.46 ГБ | Добавлен: 24 июл 2013
Раздают: 10    Качают: 5
Скачать торрент
Скачать торрент
Описание торрента

СообщениеДобавлено: 24 июл 2013 



За спичками (Леонид Гайдай, Ристо Орко) [1980, Комедия, DVDRip-AVC]

Жанр: Комедия
Год выпуска: 1980
Продолжительность: 01:33:50

Режиссёр: Леонид Гайдай, Ристо Орко

В ролях: Евгений Леонов, Вячеслав Невинный, Рита Полстер, Ритва Валкама, Георгий Вицин, Галина Польских, Сергей Филиппов, Нина Гребешкова, Михаил Пуговкин

Описание: Фильм снят по повести классика финской литературы Майю Лассила и освещает события 1910 года.
"В сюжете повести много столь необходимых комедии "если бы". В доме Ихалайнена кончились спички и невозможно развести огонь для приготовления так любимого финнами кофе. Потом случайная встреча с приятелем, и как следствие того, нарушение данного двадцать лет назад зарока не брать в рот спиртного. Затем неожиданное свидание в городе Юсси Ватанена со своей старой подружкой. Добавьте к этому неповторимые, тонко обыгранные писателем черточки национального характера, своеобразного быта, приплюсуйте эксцентричность натур главных героев, то и дело попадающих в совершенно невероятные ситуации. И когда вы проделаете все это, то поймете, что данный литературный сюжет на редкость богат возможностями для трюковых съемок, для комедии положений, для словесного юмора, для кинематографической эксцентрики. А это как раз то, что требуется в хорошей комедии."
Дополнительная информация :

СЭМПЛ

Качество видео: DVDRip-AVC (Исх. DVD5)
Формат видео: MKV

Видео: 720х512, 25 fps., х264, 1642 kbps
Аудио: 48 kHz, AC3 Dolby Digital, 3/2 (L,C,R,l,r) + LFE ch, ~448.00 kbps avg Русский
Аудио: 44,1 kHz, AC3 Dolby Digital, 1ch, ~128.00 kbps avg Финский
General
UniqueID : 212272657723187698696442867935456720625 (0x9FB23A0ECD8D94DFAD0ACFA0A26EF6F1)
Complete name : D:Za Spichkami.chopper887.mkv
Format : Matroska
File size : 1.46 GiB
Duration : 1h 33mn
Overall bit rate : 2 220 Kbps
Encoded date : UTC 2011-01-24 15:26:05
Writing application : mkvmerge v4.4.0 ('Die Wiederkehr') сборка от Nov 7 2010 22:17:07
Writing library : libebml v1.0.0 + libmatroska v1.0.0

Video
ID : 1
Format : AVC
Format/Info : Advanced Video Codec
Format profile : High@L3.1
Format settings, CABAC : Yes
Format settings, ReFrames : 10 frames
Codec ID : V_MPEG4/ISO/AVC
Duration : 1h 33mn
Bit rate : 1 642 Kbps
Width : 720 pixels
Height : 512 pixels
Display aspect ratio : 1.406
Frame rate : 25.000 fps
Color space : YUV
Chroma subsampling : 4:2:0
Bit depth : 8 bits
Scan type : Progressive
Bits/(Pixel*Frame) : 0.178
Stream size : 1.05 GiB (72%)
Writing library : x264 core 112 r1867 22bfd31
Encoding settings : cabac=1 / ref=10 / deblock=1:-2:-1 / analyse=0x3:0x133 / me=umh / subme=9 / psy=1 / psy_rd=1.00:0.10 / mixed_ref=1 / me_range=32 / chroma_me=0 / trellis=2 / 8x8dct=1 / cqm=0 / deadzone=21,11 / fast_pskip=0 / chroma_qp_offset=-3 / threads=3 / sliced_threads=0 / nr=0 / decimate=1 / interlaced=0 / constrained_intra=0 / bframes=7 / b_pyramid=2 / b_adapt=2 / b_bias=0 / direct=3 / weightb=1 / open_gop=0 / weightp=2 / keyint=250 / keyint_min=25 / scenecut=40 / intra_refresh=0 / rc_lookahead=80 / rc=2pass / mbtree=1 / bitrate=1642 / ratetol=1.0 / qcomp=0.70 / qpmin=10 / qpmax=51 / qpstep=4 / cplxblur=20.0 / qblur=0.5 / ip_ratio=1.40 / aq=1:1.00
Language : English

Audio #1
ID : 2
Format : AC-3
Format/Info : Audio Coding 3
Mode extension : CM (complete main)
Codec ID : A_AC3
Duration : 1h 33mn
Bit rate mode : Constant
Bit rate : 448 Kbps
Channel(s) : 6 channels
Channel positions : Front: L C R, Side: L R, LFE
Sampling rate : 48.0 KHz
Bit depth : 16 bits
Compression mode : Lossy
Stream size : 301 MiB (20%)

Audio #2
ID : 3
Format : AC-3
Format/Info : Audio Coding 3
Mode extension : CM (complete main)
Codec ID : A_AC3
Duration : 1h 33mn
Bit rate mode : Constant
Bit rate : 128 Kbps
Channel(s) : 1 channel
Channel positions : Front: C
Sampling rate : 44.1 KHz
Bit depth : 16 bits
Compression mode : Lossy
Stream size : 85.9 MiB (6%)







   Похожие торренты   Торрент   Размер 
В этой теме нет новых непрочитанных сообщений. За спичками (1980) DVDRip

54 | 13

1.37 ГБ

В этой теме нет новых непрочитанных сообщений. За спичками (1980) DVDRip AVC by FREEISLAND

80 | 6

2.19 ГБ

В этой теме нет новых непрочитанных сообщений. За спичками (1980) DVD5

50 | 20

3.78 ГБ

В этой теме нет новых непрочитанных сообщений. За спичками (1979) DVDRip

68 | 5

690.31 МБ

В этой теме нет новых непрочитанных сообщений. За спичками (1979) DVDRip от New-Team

506 | 57

1.46 ГБ

В этой теме нет новых непрочитанных сообщений. За спичками (1979) DVDRip от New-Team

21 | 9

743.9 МБ

В этой теме нет новых непрочитанных сообщений. За спичками (1979) DVDRip от MediaClub | КПК

271 | 13

425.06 МБ




Вы не можете начинать темы
Вы не можете отвечать на сообщения
Вы не можете редактировать свои сообщения
Вы не можете удалять свои сообщения
Вы не можете добавлять вложения

Перейти:  
Для Мосгорсуда, Роскомнадзора и рекламодателей: mosgorsud-torrent[собачка]yandex.ru
 Вход
ppkBB3cker v.2 © 2008-2014 @ PPK
[ Time : 0.061s | 15 Queries | GZIP : Off ]

Торрент трекер RUTOR.IN, Не можете зайти на rutor.org? Какой новый адрес рутор? Какое зеркало рутор? Не работает rutor.org и зеркала? Тогда наш торрент специально для вас. Rutor.in неофициальное зеркало rutor. В случае если у Вас заблокирован rutor или вдруг Вы не можете на него зайти, то Вы без труда сможете скачать бесплатно и без рекламы последние новинки кино, игр, сериалов и прочего у нас, на Rutor.in. Не нужно использовать прокси, чтобы зайти на рутор, достаточно воспользоваться нашим ресурсом. Все новые фильмы, игры, сериалы, книги и музыка за 2013 и 2014 годы через торрент бесплатно. Скачивайте фильмы в хорошем качестве, игры для пк, xbox, playstation без регистрации. У нас вы найдете новые Зарубежные сериалы и Русские сериалы 2013, 2014, 2015 годов. Оставайтесь с нами, качайте любимые фильмы, игры, сериалы, книги и музыку.
cron