img image001 image001 image001 image001 image001 image001 image001 image001 image001 image001 image001 image001 image001 image001 image001

Planets Sun Sun Sun
Статистика раздачи
Автор: Снежана | Размер: 2.18 ГБ | Добавлен: 24 июл 2013
Раздают: 4    Качают: 7
Скачать торрент
Скачать торрент
Описание торрента

СообщениеДобавлено: 24 июл 2013 

#77

Информация о фильме
Оригинальное название: Человек с бульвара Капуцинов
Год выхода: 1987
Жанр: комедия, мелодрама, мюзикл, вестерн
Режиссер: Алла Сурикова
В ролях: Андрей Миронов, Александра Яковлева, Николай Караченцов, Олег Табаков, Леонид Ярмольник, Михаил Боярский, Спартак Мишулин, Наталья Крачковская, Михаил Светин, Игорь Кваша, Лев Дуров, Галина Польских, Наталья Фатеева, Альберт Филозов, Борислав Брондуков, Олег Анофриев, Семен Фарада, Александр Иншаков, Н. Астапов, Мария Булатова, Юрий Думчев, Анатолий Калмыков, Михаил Херхеулидзе, Валерий Лысенков, А. Малышев, Юрий Медведев, Александр Павлов, Александр Сластин, Николай Сысоев, Антон Табаков, Игорь Воробьев, Дмитрий Золотухин, Юрий Шумило, Александр Горбачев, Евгений Кулешов, Борис Иванов, Николай Деберо, Станислав Микульский

Сюжет фильма:

В одном из ковбойских городков Дикого Запада с его традиционной стрельбой, сквернословием и мордобоем появляется тихий миссионер кино мистер Фёст. Неведомое прежде ковбоям «синема» до неузнаваемости меняет уклад их жизни, нравы и привычки.

Правда, позднее благородный мистер Фёст будет изгнан недоброжелателями. Но обитатели городка уже никогда не смогут забыть, что на свете есть великое искусство — КИНО…



Страна: СССР
Студия: Мосфильм
Продолжительность: 01:37:47
Перевод: не требуется
Оригинальная разбивка на главы: сохранена

Файл
Качество: BDRip-AVC 720p
Исходник: Blu-Ray Disc
Контейнер: MKV
Видео: AVC at 2440 Кбит/сек, 1280 x 766 (1.671) at 23.976 fps
Аудио: DTS at 768 Кбит/сек, 6 канала(ов), 48,0 КГц

Общее
Уникальный идентификатор : 170344033041012365714090380229768214108 (0x80271141A8E1CB56B5BE32AD4D15765C)
Полное имя : Человек с бульвара Капуцинов (1987) BDRip-AVC 720p.mkv
Формат : Matroska
Размер файла : 2,18 Гбайт
Продолжительность : 1 ч. 37 м.
Общий поток : 3197 Кбит/сек
Дата кодирования : UTC 2010-08-07 10:14:49
Программа кодирования : mkvmerge v3.4.0 ('Rapunzel') сборка от May 15 2010 09:38:20
Библиотека кодирования : libebml v0.8.0 + libmatroska v0.9.0

Видео
Идентификатор : 1
Формат : AVC
Формат/Информация : Advanced Video Codec
Профиль формата : High@L5.1
Параметр CABAC формата : Да
Параметр ReFrames формата : 16 кадры
Идентификатор кодека : V_MPEG4/ISO/AVC
Продолжительность : 1 ч. 37 м.
Битрейт : 2440 Кбит/сек
Ширина : 1280 пикс.
Высота : 766 пикс.
Соотношение сторон : 1,671
Частота кадров : 23,976 кадр/сек
Цветовое пространство : YUV
Подвыборка цветности : 4:2:0
Битовая глубина : 8 бит
Тип развёртки : Прогрессивная
Бит/(Пиксели*Кадры) : 0.104
Размер потока : 1,62 Гбайт (74%)
Библиотека кодирования : x264 core 104 r1677 19df41a
Настройки программы : cabac=1 / ref=16 / deblock=1:-2:-1 / analyse=0x3:0x133 / me=umh / subme=10 / psy=1 / psy_rd=1.00:0.00 / mixed_ref=1 / me_range=64 / chroma_me=1 / trellis=2 / 8x8dct=1 / cqm=0 / deadzone=21,11 / fast_pskip=1 / chroma_qp_offset=-2 / threads=8 / sliced_threads=0 / nr=0 / decimate=1 / interlaced=0 / constrained_intra=0 / bframes=5 / b_pyramid=2 / b_adapt=2 / b_bias=0 / direct=1 / weightb=1 / open_gop=0 / weightp=2 / keyint=250 / keyint_min=23 / scenecut=40 / intra_refresh=0 / rc=2pass / mbtree=0 / bitrate=2440 / ratetol=1.0 / qcomp=1.00 / qpmin=10 / qpmax=51 / qpstep=4 / cplxblur=20.0 / qblur=0.5 / ip_ratio=1.40 / pb_ratio=1.30 / aq=1:1.00
Основные цвета : BT.709-5, BT.1361, IEC 61966-2-4, SMPTE RP177
Характеристики трансфера : BT.709-5, BT.1361
Коэффициенты матрицы : BT.709-5, BT.1361, IEC 61966-2-4 709, SMPTE RP177

Аудио
Идентификатор : 2
Формат : DTS
Формат/Информация : Digital Theater Systems
Идентификатор кодека : A_DTS
Продолжительность : 1 ч. 37 м.
Вид битрейта : Постоянный
Битрейт : 755 Кбит/сек
Канал(ы) : 6 канала(ов)
Расположение каналов : Front: L C R, Side: L R, LFE
Частота : 48,0 КГц
Битовая глубина : 24 бит
Метод сжатия : С потерями
Размер потока : 528 Мбайт (24%)
Язык : Russian

Меню
00:00:00.000 : ru:Глава 01
00:07:27.905 : ru:Глава 02
00:13:55.960 : ru:Глава 03
00:21:33.583 : ru:Глава 04
00:32:58.101 : ru:Глава 05
00:40:15.162 : ru:Глава 06
00:48:34.703 : ru:Глава 07
00:53:06.474 : ru:Глава 08
01:04:16.477 : ru:Глава 09
01:12:13.704 : ru:Глава 10
01:19:41.234 : ru:Глава 11
01:27:29.827 : ru:Глава 12












Релиз от:



   Похожие торренты   Торрент   Размер 
В этой теме нет новых непрочитанных сообщений. Человек с бульвара Капуцинов (1987) BDRip 720p от HQ-ViDEO

237 | 136

6.6 ГБ

В этой теме нет новых непрочитанных сообщений. Человек с бульвара Капуцинов (1987) BDRip 1080p

194 | 17

4.37 ГБ

В этой теме нет новых непрочитанных сообщений. Человек с бульвара Капуцинов (1987) BDRip от HELLYWOOD

24 | 12

1.45 ГБ

В этой теме нет новых непрочитанных сообщений. Человек с бульвара Капуцинов (1987) BDRip от MediaClub | КПК

28 | 8

441.33 МБ

В этой теме нет новых непрочитанных сообщений. Человек с бульвара Капуцинов (1987) BDRip-AVC от MediaClub

139 | 16

2.29 ГБ

В этой теме нет новых непрочитанных сообщений. Человек с бульвара Капуцинов (1987) BDRip от HQCLUB

19 | 8

1.74 ГБ

В этой теме нет новых непрочитанных сообщений. Человек с бульвара Капуцинов (1987) BDRip 1080p от FreeHD

16 | 7

8.96 ГБ




Вы не можете начинать темы
Вы не можете отвечать на сообщения
Вы не можете редактировать свои сообщения
Вы не можете удалять свои сообщения
Вы не можете добавлять вложения

Перейти:  
Для Мосгорсуда, Роскомнадзора и рекламодателей: mosgorsud-torrent[собачка]yandex.ru
 Вход
ppkBB3cker v.2 © 2008-2014 @ PPK
[ Time : 0.022s | 14 Queries | GZIP : Off ]

Торрент трекер RUTOR.IN, Не можете зайти на rutor.org? Какой новый адрес рутор? Какое зеркало рутор? Не работает rutor.org и зеркала? Тогда наш торрент специально для вас. Rutor.in неофициальное зеркало rutor. В случае если у Вас заблокирован rutor или вдруг Вы не можете на него зайти, то Вы без труда сможете скачать бесплатно и без рекламы последние новинки кино, игр, сериалов и прочего у нас, на Rutor.in. Не нужно использовать прокси, чтобы зайти на рутор, достаточно воспользоваться нашим ресурсом. Все новые фильмы, игры, сериалы, книги и музыка за 2013 и 2014 годы через торрент бесплатно. Скачивайте фильмы в хорошем качестве, игры для пк, xbox, playstation без регистрации. У нас вы найдете новые Зарубежные сериалы и Русские сериалы 2013, 2014, 2015 годов. Оставайтесь с нами, качайте любимые фильмы, игры, сериалы, книги и музыку.