img image001 image001 image001 image001 image001 image001 image001 image001 image001 image001 image001 image001 image001 image001 image001

Planets Sun Sun Sun
Статистика раздачи
Автор: Снежана | Размер: 4.36 ГБ | Добавлен: 24 июл 2013
Раздают: 28    Качают: 7
Скачать торрент
Скачать торрент
Описание торрента

СообщениеДобавлено: 24 июл 2013 

#77

Информация о фильме
Название: Формула любви
Год выхода: 1984
Жанр: мелодрама, комедия
Режиссер: Марк Захаров
В ролях: Нодар Мгалоблишвили, Александр Абдулов, Семен Фарада, Елена Валюшкина, Александр Михайлов, Александра Захарова, Елена Аминова, Татьяна Пельтцер, Леонид Броневой, Николай Скоробогатов

О фильме:
Музыкальная комедия по мотивам повести Алексея Толстого «Граф Калиостро». В 1780 году Джузеппе Калиостро прибыл в Россию для представления высшей знати. Умыкнув под предлогом лечения отца юную Марью Ивановну, граф пытается влюбить в себя девицу, но безуспешно. В провинциальном поместье, где волею случая оказались путешественники, живет юноша, влюбленный в мраморную статую. С помощью Калиостро он надеется оживить мрамор, но встреча с живой Машей все меняет...

Страна: СССР
Продолжительность: 01:30:11
Перевод: Оригинал

Файл
Кодек: x.264
Качество: BDRip 1080p
Видео: 6540 kb/s, 1472x1080, 23.976 fps
Звук: AC3, 448 kb/s (6Ch)
Субтитры: нет
Сохранены чаптеры Blu-Ray
Семпл



Релиз от:

General
Complete name : F:Формула любви (1984).mkv
Format : Matroska
File size : 4.36 GiB
Duration : 1h 30mn
Overall bit rate : 6 917 Kbps
Movie name : Формула любви (1984) BDRip 1080p-Rip by Neofilm for Lazeek.info
Encoded date : UTC 2011-02-05 20:16:42
Writing application : mkvmerge v4.1.1 ('Bouncin' Back') сборка от Jul 3 2010 22:54:08
Writing library : libebml v1.0.0 + libmatroska v1.0.0

Video
ID : 1
Format : AVC
Format/Info : Advanced Video Codec
Format profile : High@L4.1
Format settings, CABAC : Yes
Format settings, ReFrames : 4 frames
Format settings, GOP : M=2, N=16
Muxing mode : Container profile=Unknown@4.1
Codec ID : V_MPEG4/ISO/AVC
Duration : 1h 30mn
Bit rate : 6 540 Kbps
Width : 1 472 pixels
Height : 1 080 pixels
Display aspect ratio : 4:3
Frame rate : 23.976 fps
Color space : YUV
Chroma subsampling : 4:2:0
Bit depth : 8 bits
Scan type : Progressive
Bits/(Pixel*Frame) : 0.172
Stream size : 3.99 GiB (92%)
Title : Формула любви (1984)
Writing library : x264 core 112 r1867 22bfd31
Encoding settings : cabac=1 / ref=4 / deblock=1:-3:-3 / analyse=0x3:0x113 / me=umh / subme=9 / psy=1 / psy_rd=1.00:0.06 / mixed_ref=1 / me_range=32 / chroma_me=1 / trellis=2 / 8x8dct=1 / cqm=0 / deadzone=21,11 / fast_pskip=0 / chroma_qp_offset=-3 / threads=6 / sliced_threads=0 / nr=0 / decimate=0 / interlaced=0 / constrained_intra=0 / bframes=3 / b_pyramid=2 / b_adapt=2 / b_bias=0 / direct=3 / weightb=1 / open_gop=0 / weightp=2 / keyint=250 / keyint_min=23 / scenecut=40 / intra_refresh=0 / rc_lookahead=40 / rc=abr / mbtree=1 / bitrate=6540 / ratetol=1.5 / qcomp=0.60 / qpmin=10 / qpmax=51 / qpstep=4 / vbv_maxrate=40000 / vbv_bufsize=40000 / nal_hrd=none / ip_ratio=1.40 / aq=1:1.00
Language : Russian

Audio
ID : 2
Format : AC-3
Format/Info : Audio Coding 3
Mode extension : CM (complete main)
Codec ID : A_AC3
Duration : 1h 30mn
Bit rate mode : Constant
Bit rate : 448 Kbps
Channel(s) : 6 channels
Channel positions : Front: L C R, Side: L R, LFE
Sampling rate : 48.0 KHz
Bit depth : 16 bits
Stream size : 289 MiB (6%)
Title : Оригинал
Language : Russian

Menu
00:00:00.000 : en:Chapter 00
00:10:05.479 : en:Chapter 01
00:16:10.928 : en:Chapter 02
00:24:00.105 : en:Chapter 03
00:29:34.689 : en:Chapter 04
00:37:08.893 : en:Chapter 05
00:45:41.572 : en:Chapter 06
00:51:38.637 : en:Chapter 07
01:01:43.700 : en:Chapter 08
01:07:29.962 : en:Chapter 09
01:13:55.431 : en:Chapter 10
01:21:28.675 : en:Chapter 11



   Похожие торренты   Торрент   Размер 
В этой теме нет новых непрочитанных сообщений. Формула любви (1984) BDRip-AVC

64 | 12

2.17 ГБ

В этой теме нет новых непрочитанных сообщений. Формула любви (1984) BDRip от HQCLUB

168 | 16

1.7 ГБ

В этой теме нет новых непрочитанных сообщений. Формула любви (1984) BDRip от MediaClub | КПК

38 | 14

405.83 МБ

В этой теме нет новых непрочитанных сообщений. Формула любви (1984) BDRip 1080 от HDReactor

34 | 9

7.95 ГБ

В этой теме нет новых непрочитанных сообщений. Формула любви (1984) BDRip 720p от FREEISLAND

8 | 4

4.37 ГБ

В этой теме нет новых непрочитанных сообщений. Формула любви (1984) Blu-Ray

7 | 4

16.92 ГБ

В этой теме нет новых непрочитанных сообщений. Терминатор / The Terminator (1984) BDRip 1080p Rip By Neofilm

1 | 3

7.62 ГБ




Вы не можете начинать темы
Вы не можете отвечать на сообщения
Вы не можете редактировать свои сообщения
Вы не можете удалять свои сообщения
Вы не можете добавлять вложения

Перейти:  
Для Мосгорсуда, Роскомнадзора и рекламодателей: mosgorsud-torrent[собачка]yandex.ru
 Вход
ppkBB3cker v.2 © 2008-2014 @ PPK
[ Time : 0.081s | 15 Queries | GZIP : Off ]

Торрент трекер RUTOR.IN, Не можете зайти на rutor.org? Какой новый адрес рутор? Какое зеркало рутор? Не работает rutor.org и зеркала? Тогда наш торрент специально для вас. Rutor.in неофициальное зеркало rutor. В случае если у Вас заблокирован rutor или вдруг Вы не можете на него зайти, то Вы без труда сможете скачать бесплатно и без рекламы последние новинки кино, игр, сериалов и прочего у нас, на Rutor.in. Не нужно использовать прокси, чтобы зайти на рутор, достаточно воспользоваться нашим ресурсом. Все новые фильмы, игры, сериалы, книги и музыка за 2013 и 2014 годы через торрент бесплатно. Скачивайте фильмы в хорошем качестве, игры для пк, xbox, playstation без регистрации. У нас вы найдете новые Зарубежные сериалы и Русские сериалы 2013, 2014, 2015 годов. Оставайтесь с нами, качайте любимые фильмы, игры, сериалы, книги и музыку.