img image001 image001 image001 image001 image001 image001 image001 image001 image001 image001 image001 image001 image001 image001 image001

Planets Sun Sun Sun
Статистика раздачи
Автор: Снежана | Размер: 695.1 МБ | Добавлен: 24 июл 2013
Раздают: 151    Качают: 6
Скачать торрент
Скачать торрент
Описание торрента

СообщениеДобавлено: 24 июл 2013 

#77

Идеальная пара /1992/ DVDRip







Информация о фильме:

Название: Идеальная пара
Год выхода: 1992
Жанр: Комедия



Режиссер: Александр Полынников
Сценаристы: Роальд Даль /Roald Dahl/ рассказы, Александр Полынников
Оператор: Ольга Горюнова



В фильме снимались:
Анна Самохина
Анна Назарьева
Андрей Градов
Юрий Дуванов
Римма Зюбина
Б. Чернокульский
и другие...



Описание: По мотивам рассказов Роальда Дала. Победителями конкурса "Идеальная пара" стали супруги Воронцовы. В качестве приза они получают контракт на съемки в фильме "Ночь любви". Съемки - на берегу моря, жилье - роскошное, отдых да благодать. И вот, чтобы внести пикантное разнообразие в свой отдых, ребята решили на две ночи поменяться женами, а те подготовили им контрудар... (Иванов М.)



Страна:
Выпущено: Студия "АУРА", Одесса, Фирма МИКО - С
Продолжительность: 01:04:11
Субтитры: Нет









[size=1]Format : AVI
Format/Info : Audio Video Interleave
File size : 695 MiB
Duration : 1h 4mn
Overall bit rate : 1 514 Kbps
Writing application : VirtualDubMod 1.5.10.2 (build 2540/release)

Video
ID : 0
Format : MPEG-4 Visual
Format profile : Advanced Simple@L5
Format settings, BVOP : Yes
Format settings, QPel : No
Format settings, GMC : No warppoints
Format settings, Matrix : Default (H.263)
Muxing mode : Packed bitstream
Codec ID : XVID
Codec ID/Hint : XviD
Duration : 1h 4mn
Bit rate : 1 312 Kbps
Width : 512 pixels
Height : 384 pixels
Display aspect ratio : 4:3
Frame rate : 25.000 fps
Color space : YUV
Chroma subsampling : 4:2:0
Bit depth : 8 bits
Scan type : Progressive
Compression mode : Lossy
Bits/(Pixel*Frame) : 0.267
Stream size : 603 MiB (87%)
Writing library : XviD 1.2.1 (UTC 2008-12-04)

Audio
ID : 1
Format : MPEG Audio
Format version : Version 1
Format profile : Layer 3
Mode : Joint stereo
Mode extension : MS Stereo
Codec ID : 55
Codec ID/Hint : MP3
Duration : 1h 4mn
Bit rate mode : Constant
Bit rate : 192 Kbps
Channel(s) : 2 channels
Sampling rate : 48.0 KHz
Compression mode : Lossy
Stream size : 88.2 MiB (13%)
Alignment : Aligned on interleaves
Interleave, duration : 40 ms (1.00 video frame)
Interleave, preload duration : 504 ms



Качество: DVDRip /Исходник DVD5/
Формат: AVI
Видео кодек: XviD
Аудио кодек: MP3
Видео: 512x384 (1.33:1), 25 fps, XviD MPEG-4 ~1312 kbps avg, 0.27 bit/pixel
Аудио: 48 kHz, MPEG Layer 3, 2 ch, ~192.00 kbps avg
Автор рипа:











   Похожие торренты   Торрент   Размер 
В этой теме нет новых непрочитанных сообщений. Идеальная пара (1992) DVD5

28 | 9

3.73 ГБ

В этой теме нет новых непрочитанных сообщений. Идеальная пара [01-10 из 10] (2001) DVDRip-AVC

73 | 11

6.75 ГБ

В этой теме нет новых непрочитанных сообщений. Идеальная Пара / Perfect Mismatch (2009) DVDRip

1 | 2

1.36 ГБ

В этой теме нет новых непрочитанных сообщений. Пасьянс. Идеальная пара (2015) PC

228 | 14

31.8 МБ

В этой теме нет новых непрочитанных сообщений. Идеальная пара (2014) SATRip

4102 | 215

1.25 ГБ

В этой теме нет новых непрочитанных сообщений. Идеальная пара (2014) HDTVRip от Шкипер

1066 | 34

745.36 МБ

В этой теме нет новых непрочитанных сообщений. Идеальная пара (2014) HDTVRip от Files-x

2658 | 86

1.37 ГБ




Вы не можете начинать темы
Вы не можете отвечать на сообщения
Вы не можете редактировать свои сообщения
Вы не можете удалять свои сообщения
Вы не можете добавлять вложения

Перейти:  
Для Мосгорсуда, Роскомнадзора и рекламодателей: mosgorsud-torrent[собачка]yandex.ru
 Вход
ppkBB3cker v.2 © 2008-2014 @ PPK
[ Time : 0.040s | 17 Queries | GZIP : Off ]

cron