img image001 image001 image001 image001 image001 image001 image001 image001 image001 image001 image001 image001 image001 image001 image001

Planets Sun Sun Sun
Статистика раздачи
Автор: Снежана | Размер: 1.36 ГБ | Добавлен: 24 июл 2013
Раздают: 7    Качают: 3
Скачать торрент
Скачать торрент
Описание торрента

СообщениеДобавлено: 24 июл 2013 

#77

По данным уголовного розыска /1979/ AVC







Информация о фильме:

Название: По данным уголовного розыска
Год выхода: 1979
Жанр: Детектив, Военный, Криминал



Режиссер: Валерий Михайловский
Сценарист: Эдуард Хруцкий
Оператор: Сергей Онуфриев
Композитор: Георгий Мовсесян



В фильме снимались:
Леонид Неведомский — полковник Данилов
Геннадий Крынкин — Степан Полесов, сотрудник МУРа
Александр Соловьев — Сергей Белов, сотрудник МУРа
Елена Шанина — Зоя, сотрудница МУРа
Александр Хочинский — Михаил Костров, «Червонец»
Алексей Эйбоженко — Илья Королев, сотрудник госбезопасности
Владимир Кенигсон — Володя Гомельский, скупщик краденого, мошенник
Виктор Сергачев — Фомин («Сутулый»)
и другие...



Описание: В июле 1941 года наступающими немецкими войсками была перехвачена машина, перевозившая ювелирные изделия. Руководство германской разведки решило внедрить своего агента по документам убитого инкассатора…

В августе 1942 года была убита семья ювелира Ивановского. Группа сотрудников МУРа во главе с опытным чекистом Даниловым начала свою операцию по обезвреживанию опасных преступников, которые были подготовлены в школах СД и Абвера для выполнения диверсионной работы. Важную роль в поимке вражеских агентов отводилась бывшему вору Кострову…


PS. Экранизация повести Э. А. Хруцкого «Тревожный август».



Страна:
Выпущено: Студия Горького
Продолжительность: 01:09:31
Субтитры: Нет









[size=1]Format : MPEG-4
Format profile : Base Media
Codec ID : isom
File size : 1.36 GiB
Duration : 1h 9mn
Overall bit rate : 2 793 Kbps
Encoded date : UTC 2011-02-09 16:52:08
Tagged date : UTC 2011-02-09 16:52:08

Video
ID : 1
Format : AVC
Format/Info : Advanced Video Codec
Format profile : High@L3.1
Format settings, CABAC : Yes
Format settings, ReFrames : 4 frames
Codec ID : avc1
Codec ID/Info : Advanced Video Coding
Duration : 1h 9mn
Bit rate mode : Variable
Bit rate : 2 599 Kbps
Maximum bit rate : 7 014 Kbps
Width : 896 pixels
Height : 504 pixels
Display aspect ratio : 16:9
Frame rate mode : Constant
Frame rate : 25.000 fps
Color space : YUV
Chroma subsampling : 4:2:0
Bit depth : 8 bits
Scan type : Progressive
Bits/(Pixel*Frame) : 0.230
Stream size : 1.27 GiB (93%)
Title : Imported with GPAC 0.4.6-DEV (build 1)
Writing library : x264 core 92 r1510 33d382a
Encoding settings : cabac=1 / ref=1 / deblock=1:0:0 / analyse=0x3:0x3 / me=dia / subme=1 / psy=1 / psy_rd=0.00:0.00 / mixed_ref=0 / me_range=16 / chroma_me=1 / trellis=0 / 8x8dct=1 / cqm=0 / deadzone=21,11 / fast_pskip=1 / chroma_qp_offset=0 / threads=1 / sliced_threads=0 / nr=0 / decimate=1 / interlaced=0 / constrained_intra=0 / bframes=3 / b_pyramid=2 / b_adapt=1 / b_bias=0 / direct=1 / wpredb=1 / wpredp=0 / keyint=250 / keyint_min=25 / scenecut=40 / intra_refresh=0 / rc=abr / mbtree=0 / bitrate=2599 / ratetol=1.0 / qcomp=0.60 / qpmin=10 / qpmax=51 / qpstep=4 / ip_ratio=1.40 / pb_ratio=1.30 / aq=1:1.00
Encoded date : UTC 2011-02-09 16:52:08
Tagged date : UTC 2011-02-09 16:55:08

Audio
ID : 2
Format : MPEG Audio
Format version : Version 1
Format profile : Layer 3
Codec ID : 6B
Duration : 1h 9mn
Bit rate mode : Variable
Bit rate : 192 Kbps
Maximum bit rate : 208 Kbps
Channel(s) : 2 channels
Sampling rate : 48.0 KHz
Compression mode : Lossy
Stream size : 91.2 MiB (7%)
Title : Imported with GPAC 0.4.6-DEV (build 1)
Writing library : LAME3.98r
Encoding settings : -m s -V 4 -q 2 -lowpass 18.6 --abr 192
Encoded date : UTC 2011-02-09 16:54:37
Tagged date : UTC 2011-02-09 16:55:08



Качество: DVDRip-AVC /Исходник DVD5/
Формат: MKV
Видео кодек: x264
Аудио кодек: MP3
Видео: MPEG4 Video (H264) 896x504, 25 fps, ~2599 kbps avg, 0.22 bit/pixel
Аудио: 48 kHz, MPEG Layer 3, 2 ch, ~192.00 kbps avg
Автор рипа:











   Похожие торренты   Торрент   Размер 
В этой теме нет новых непрочитанных сообщений. По данным уголовного розыска... (1979) DVDRip-AVC

115 | 19

1.43 ГБ

В этой теме нет новых непрочитанных сообщений. По данным уголовного розыска... (1979) DVDRip-AVC от New-Team

36 | 4

744.22 МБ

В этой теме нет новых непрочитанных сообщений. По данным уголовного розыска... (1979) DVDRip от New-Team

33 | 12

745.13 МБ

В этой теме нет новых непрочитанных сообщений. Будни уголовного розыска (1973) DVDRip от Киномагия

46 | 20

1.37 ГБ

В этой теме нет новых непрочитанных сообщений. Из жизни начальника уголовного розыска (1983) DVDRip от New-Team

5 | 9

744.09 МБ

В этой теме нет новых непрочитанных сообщений. Из жизни начальника уголовного розыска (1983) DVDRip от New-Team

332 | 6

1.46 ГБ

В этой теме нет новых непрочитанных сообщений. Из жизни начальника уголовного розыска (1983) DVDRip-AVC от New-Team

7 | 6

1.46 ГБ




Вы не можете начинать темы
Вы не можете отвечать на сообщения
Вы не можете редактировать свои сообщения
Вы не можете удалять свои сообщения
Вы не можете добавлять вложения

Перейти:  
Для Мосгорсуда, Роскомнадзора и рекламодателей: mosgorsud-torrent[собачка]yandex.ru
 Вход
ppkBB3cker v.2 © 2008-2014 @ PPK
[ Time : 0.019s | 14 Queries | GZIP : On ]

Торрент трекер RUTOR.IN, Не можете зайти на rutor.org? Какой новый адрес рутор? Какое зеркало рутор? Не работает rutor.org и зеркала? Тогда наш торрент специально для вас. Rutor.in неофициальное зеркало rutor. В случае если у Вас заблокирован rutor или вдруг Вы не можете на него зайти, то Вы без труда сможете скачать бесплатно и без рекламы последние новинки кино, игр, сериалов и прочего у нас, на Rutor.in. Не нужно использовать прокси, чтобы зайти на рутор, достаточно воспользоваться нашим ресурсом. Все новые фильмы, игры, сериалы, книги и музыка за 2013 и 2014 годы через торрент бесплатно. Скачивайте фильмы в хорошем качестве, игры для пк, xbox, playstation без регистрации. У нас вы найдете новые Зарубежные сериалы и Русские сериалы 2013, 2014, 2015 годов. Оставайтесь с нами, качайте любимые фильмы, игры, сериалы, книги и музыку.